Rush - Hemispheres (1978) [Audio Fidelity '2013] PS3 ISO + Hi-Res FLAC

Posted By: HDAtall
Rush - Hemispheres (1978) [Audio Fidelity '2013] PS3 ISO + Hi-Res FLAC

Rush - Hemispheres (1978) [Audio Fidelity '2013]
PS3 Rip | SACD ISO | DSD64 2.0 > 1-bit/2.8224 MHz | 36:08 minutes | Scans included | 1,09 GB
or FLAC(converted with foobar2000 to tracks) 24bit/96 kHz | Full Scans included | 864 MB
Audio Fidelity SACD #AFZ-162 | Mastered for this SACD by Kevin Grey at Cohearent Audio

While such albums as 1980's Permanent Waves and 1981's Moving Pictures are usually considered Rush's masterpieces (and with good reason), 1978's Hemispheres is just as deserving. Maybe the fact that the album consists of only four compositions (half are lengthy pieces) was a bit too intimidating for some, but the near 20-minute-long "Cygnus X-1 Book II - Hemispheres" is arguably the band's finest extended track. While the story line isn't as comprehensible as "2112" was, it's much more consistent musically, twisting and turning through five different sections which contrast heavy rock sections against more sedate pieces. Neil Peart had become one of rock's most accomplished lyricists by this point, as evidenced by "The Trees," which deals with racism and inequality in a unique way (set in a forest!). And as always, the trio prove to be experts at their instruments, this time on the complex instrumental "La Villa Strangiato." Geddy Lee's shrieking vocals on the otherwise solid "Circumstances" may border on the irritating, but Hemispheres remains one of Rush's greatest releases.

Tracklist:

01. Cygnus X-1 Book II: Hemispheres
I. Prelude
II. Apollo (Bringer of Wisdom)
III. Dionysus (Bringer of Love)
IV. Armageddon (The Battle of Heart and Mind)
V. Cygnus (Bringer of Balance)
VI. The Sphere (A Kind of Dream)

02. Circumstances
03. The Trees

04. La Villa Strangiato (An Exercise in Self-Indulgence)
I. Buenas Noches, Mein Froinds!
II. To Sleep, Perchance to Dream…
III. Strangiato Theme - 2:00
IV. A Lerxst in Wonderland
V. Monsters!
VI. The Ghost of the Aragon
VII. Danforth and Pape
VIII. The Waltz of the Shreves
IX. Never Turn Your Back on a Monster!
X. Monsters! (Reprise)
XI. Strangiato Theme (Reprise)
XII. A Farewell to Things

Mastered for this SACD by Kevin Grey at Cohearent Audio.

foobar2000 1.2.9 / Dynamic Range Meter 1.1.1

––––––––––––––––––––––––––––––––––––––––
Analyzed: RUSH / HEMISPHERES
––––––––––––––––––––––––––––––––––––––––

DR Peak RMS Duration Track
––––––––––––––––––––––––––––––––––––––––
DR13 -5.53 dB -21.85 dB 18:05 01-Cygnus X-1 Book II: Hemispheres
DR12 -6.47 dB -21.16 dB 3:41 02-Circumstances
DR13 -6.18 dB -23.02 dB 4:44 03-The Trees
DR13 -5.67 dB -22.63 dB 9:38 04-La Villa Strangiato (An Exercise in Self-Indulgence)
––––––––––––––––––––––––––––––––––––––––

Number of tracks: 4
Official DR value: DR13

Samplerate: 2822400 Hz / PCM Samplerate: 88200 Hz
Channels: 2
Bits per sample: 24
Bitrate: 5645 kbps
Codec: DSD64


Thanks to PS³SACD!
Uncompressed SACD ISO size > 1,45 GB
>