Tags
Language
Tags
February 2024
Su Mo Tu We Th Fr Sa
28 29 30 31 1 2 3
4 5 6 7 8 9 10
11 12 13 14 15 16 17
18 19 20 21 22 23 24
25 26 27 28 29 1 2
Attention❗ To save your time, in order to download anything on this site, you must be registered 👉 HERE. If you do not have a registration yet, it is better to do it right away. ✌

( • )( • ) ( ͡⚆ ͜ʖ ͡⚆ ) (‿ˠ‿)
SpicyMags.xyz

Sandrine Piau, Orchestre Victor Hugo & Jean-François Verdier - Clair-Obscur (2021) [Official Digital Download 24/48]

Posted By: delpotro
Sandrine Piau, Orchestre Victor Hugo & Jean-François Verdier - Clair-Obscur (2021) [Official Digital Download 24/48]

Sandrine Piau, Orchestre Victor Hugo & Jean-François Verdier - Clair-Obscur (2021)
FLAC (tracks) 24-bit/48 kHz | Front Cover & Digital Booklet | Time - 50:42 minutes | 478 MB
Classical, Vocal | Label: Alpha Classics, Official Digital Download

‘The dreamer! That double of our existence, that chiaroscuro of the thinking being’, wrote Gaston Bachelard in 1961. ‘The old is dying, the new cannot be born, and in that chiaroscuro, monsters appear’, adds Antonio Gramsci. Sandrine Piau has chosen to use these two quotations as an epigraph to her new recording: ‘My family and friends know about this obsession that never leaves me completely. The antagonism between light and darkness. The chiaroscuro, the space in between…’ This programme, recorded with the Orchestre Victor Hugo under its conductor Jean-François Verdier, who is also principal clarinettist of the Paris Opéra, travels between the chilly Rhenish forest of Waldgespräch, a ballad by Zemlinsky composed for soprano and small ensemble in 1895, the night of the first of Berg’s Seven Early Songs (1905-08), and the sunlight of Richard Strauss’s Morgen, which are followed by the Four Last Songs, composed in 1948, the first two of which, Frühling and September (evoking spring and autumn respectively) are also, as Sandrine Piau concludes, ‘the seasons of life’.

Tracklist:
1. Jean-François Verdier, Sandrine Piau & Orchestre Victor Hugo – Waldgespräch (07:03)
2. Jean-François Verdier, Sandrine Piau & Orchestre Victor Hugo – Vier Lieder, Op. 27: No. 4, Morgen! (03:42)
3. Jean-François Verdier, Sandrine Piau & Orchestre Victor Hugo – Sechs Lieder, Op. 37: No. 3, Meinem Kinde (02:40)
4. Jean-François Verdier, Sandrine Piau & Orchestre Victor Hugo – Sieben Früher Lieder: I. Nacht (03:45)
5. Jean-François Verdier, Sandrine Piau & Orchestre Victor Hugo – Sieben Früher Lieder: II. Schilflied (02:06)
6. Jean-François Verdier, Sandrine Piau & Orchestre Victor Hugo – Sieben Früher Lieder: III. Die Nachtigall (01:52)
7. Jean-François Verdier, Sandrine Piau & Orchestre Victor Hugo – Sieben Früher Lieder: IV. Traumgekrönt (02:19)
8. Jean-François Verdier, Sandrine Piau & Orchestre Victor Hugo – Sieben Früher Lieder: V. Im Zimmer (01:11)
9. Jean-François Verdier, Sandrine Piau & Orchestre Victor Hugo – Sieben Früher Lieder: VI. Liebesode (01:37)
10. Jean-François Verdier, Sandrine Piau & Orchestre Victor Hugo – Sieben Früher Lieder: VII. Sommertage (01:33)
11. Jean-François Verdier, Sandrine Piau & Orchestre Victor Hugo – Vier Letzte Lieder: I. Frühling (03:07)
12. Jean-François Verdier, Sandrine Piau & Orchestre Victor Hugo – Vier Letzte Lieder: II. September (04:53)
13. Jean-François Verdier, Sandrine Piau & Orchestre Victor Hugo – Vier Letzte Lieder: III. Beim Schlafengehen (05:07)
14. Jean-François Verdier, Sandrine Piau & Orchestre Victor Hugo – Vier Letzte Lieder: IV. Im Abendrot (06:46)
15. Jean-François Verdier, Sandrine Piau & Orchestre Victor Hugo – Malven, TrV 297 (02:55)

foobar2000 1.4.1 / Dynamic Range Meter 1.1.1
log date: 2021-03-03 18:43:07

––––––––––––––––––––––––––––––––––––––––
Analyzed: Sandrine Piau, Orchestre Victor Hugo & Jean-François Verdier / Clair-Obscur
––––––––––––––––––––––––––––––––––––––––

DR Peak RMS Duration Track
––––––––––––––––––––––––––––––––––––––––
DR14 -0.21 dB -19.44 dB 7:03 01-Zemlinsky: Waldgespräch
DR13 -4.42 dB -24.29 dB 3:42 02-Strauss: Morgen!, Op. 27 No. 4
DR12 -3.69 dB -21.59 dB 2:40 03-Strauss: Meinem Kinde, Op. 37 No. 3
DR14 -0.21 dB -20.73 dB 3:45 04-Berg: Sieben Früher Lieder: I. Nacht
DR13 -1.45 dB -20.47 dB 2:07 05-Berg: Sieben Früher Lieder: II. Schilflied
DR10 -2.02 dB -18.74 dB 1:53 06-Berg: Sieben Früher Lieder: III. Die Nachtigall
DR12 -2.82 dB -20.44 dB 2:20 07-Berg: Sieben Früher Lieder: IV. Traumgekrönt
DR13 -3.66 dB -21.96 dB 1:11 08-Berg: Sieben Früher Lieder: V. Im Zimmer
DR13 -0.21 dB -18.61 dB 1:37 09-Berg: Sieben Früher Lieder: VI. Liebesode
DR12 -0.26 dB -17.80 dB 1:34 10-Berg: Sieben Früher Lieder: VII. Sommertage
DR12 -0.20 dB -17.64 dB 3:08 11-Strauss: Vier Letzte Lieder: I. Frühling
DR14 -1.73 dB -20.77 dB 4:53 12-Strauss: Vier Letzte Lieder: II. September
DR13 -2.36 dB -21.45 dB 5:07 13-Strauss: Vier Letzte Lieder: III. Beim Schlafengehen
DR14 -0.20 dB -19.96 dB 6:47 14-Strauss: Vier Letzte Lieder: IV. Im Abendrot
DR12 -2.03 dB -20.22 dB 2:55 15-Strauss: Malven
––––––––––––––––––––––––––––––––––––––––

Number of tracks: 15
Official DR value: DR13

Samplerate: 48000 Hz
Channels: 2
Bits per sample: 24
Bitrate: 1296 kbps
Codec: FLAC
================================================================================


Thanks to the Original customer!