Santana - Shango (1982/2014) [Official Digital Download 24-bit/96kHz] RE-UP

Posted By: HDV
Santana - Shango (1982/2014) [Official Digital Download 24-bit/96kHz] RE-UP

Santana - Shangó (1982/2014)
FLAC (tracks) 24 bit/96 kHz | Time - 44:14 minutes | 950 MB
Studio Master, Official Digital Download | Artwork: Front cover

"Shangó" is Santana's twelfth studio album and was released in August 1982. It peaked at #22 on the Billboard 200 chart and the single "Hold On" hit #15 on the Hot 100 singles chart. The album was produced by Bill Szymczyk, John Ryan, Carlos Santana, and Gregg Rolie.

Shango is notable for featuring the return, in the role of co-producer and co-songwriter, of original Santana keyboardist Greg Rolie. The main producer, however, was Bill Szymczyk (James Gang, Eagles), who gave Santana an unusually sharp rock sound resulting in two more hit singles, "Hold On" (Number 15), and "Nowhere to Run" (Number 66), although the band once again slipped below the Top Ten and gold-selling status, with the album peaking at only Number 22, and even this was the highest Santana would get until Supernatural in 1999.

Tracklist:

01 - The Nile
02 - Hold On
03 - Night Hunting Time
04 - Nowhere To Run
05 - Nueva York (Instrumental)
06 - Oxun (Oshun)
07 - Body Surfing
08 - What Does It Take (To Win Your Love)
09 - Let Me Inside
10 - Warrior (Instrumental)
11 - Shangó (Instrumental)

Analyzed: Santana / Shangó
––––––––––––––––––––––––––––––––––––––––

DR Peak RMS Duration Track
––––––––––––––––––––––––––––––––––––––––
DR14 -0.27 dB -16.43 dB 4:52 01-The Nile
DR14 -0.60 dB -16.48 dB 4:21 02-Hold On
DR14 -0.03 dB -16.16 dB 4:40 03-Night Hunting Time
DR13 -0.03 dB -14.17 dB 3:58 04-Nowhere To Run
DR14 -0.03 dB -17.07 dB 4:56 05-Nueva York (Instrumental)
DR14 -1.12 dB -16.58 dB 4:11 06-Oxun (Oshun)
DR14 -0.03 dB -16.96 dB 4:23 07-Body Surfing
DR14 -1.10 dB -17.23 dB 3:22 08-What Does It Take (To Win Your Love)
DR14 -0.49 dB -17.11 dB 3:30 09-Let Me Inside
DR14 -1.44 dB -16.54 dB 4:20 10-Warrior (Instrumental)
DR13 -2.79 dB -18.94 dB 1:40 11-Shangó (Instrumental)
––––––––––––––––––––––––––––––––––––––––

Number of tracks: 11
Official DR value: DR14

Samplerate: 96000 Hz
Channels: 2
Bits per sample: 24
Bitrate: 2682 kbps
Codec: FLAC
================================================================================


Thanks to the Original customer!