Carlos Santana & John McLaughlin - Live At Montreux 2011 (2013) [Blu-Ray to FLAC 24bit/96kHz]

Posted By: HDV
Carlos Santana & John McLaughlin - Live At Montreux 2011 (2013) [Blu-Ray to FLAC 24bit/96kHz]

Santana and McLaughlin - Invitation To Illumination: Live At Montreux 2011 (2013)
FLAC(Tracks) 24 bit/96 kHz | Time - 134:46 minutes | 2,99 MB
Source: Blu-Ray (Eagle Rock Entertainment > LPCM 24/96 track) | Digital booklet

On July 1st, 2011, Montreux hosted the reunion of two master guitarists, Carlos Santana and John McLaughlin, with their "Invitation To Illumination" concert. Both musicians have been regulars at Montreux across the years but this was the first time they headlined their own concert together. The show features most of the tracks from their classic 1973 album Love Devotion Surrender mixed in with a wealth of other material. The evening was a showcase of supreme musical virtuosity and spirituality and typified the approach of these two great artists. It is certainly a performance not to be missed.

Tracklist:

01 - Echoes of Angels/Introductions
02 - The Life Divine
03 - Medley: Peace on Earth/A Hard Rain's A Gonna Fall/Stairway to Heaven/Our Prayer/SOCC
04 - Right Off
05 - Vuelta Abajo
06 - Vashkar
07 - The Creator Has a Master Plan
08 - Naima
09 - Lotus Land Op. 47, No. 1
10 - Downstairs
11 - Venus/Upper Egypt
12 - Let Us Go Into the House of the Lord
13 - Black Satin
14 - Cindy Blackman Santana Drum Solo
15 - A Love Supreme
16 - Shake It Up and Go

Musicians:
Carlos Santana - Lead Guitar & Vocals
John McLaughlin - Lead Guitar & Vocals
Cindy Blackman Santana - Drums
Dennis Chambers - Drums
David K. Mathews - Keyboards
Tommy Anthony - Guitar & Vocals
Raul Rekow - Congas, Percussion & Vocals
Etienne M'Bappé - Bass
Benny Rietveld - Bass
Tony Lindsay - Vocals
Andy Vargas - Vocals

Analyzed: Santana and McLaughlin / Invitation to Illumination - Live At Montreux 2011
––––––––––––––––––––––––––––––––––––––––

DR Peak RMS Duration Track
––––––––––––––––––––––––––––––––––––––––
DR15 -6.60 dB -28.31 dB 5:11 01-Echoes of Angels/Introductions
DR9 -0.01 dB -10.67 dB 7:04 02-The Life Divine
DR9 -0.01 dB -11.18 dB 8:54 03-Medley: Peace on Earth/A Hard Rain's A Gonna Fall/Stairway to Heaven/Our Prayer/SOCC
DR11 -0.04 dB -14.01 dB 11:20 04-Right Off
DR8 -0.01 dB -9.63 dB 6:19 05-Vuelta Abajo
DR7 0.00 dB -9.52 dB 7:06 06-Vashkar
DR9 -0.03 dB -11.80 dB 13:02 07-The Creator Has a Master Plan
DR15 -4.58 dB -24.59 dB 3:23 08-Naima
DR13 -0.81 dB -17.96 dB 5:33 09-Lotus Land Op. 47, No. 1
DR8 0.00 dB -9.51 dB 6:58 10-Downstairs
DR7 0.00 dB -9.02 dB 10:13 11-Venus/Upper Egypt
DR7 -0.01 dB -9.14 dB 13:07 12-Let Us Go Into the House of the Lord
DR7 0.00 dB -8.68 dB 9:18 13-Black Satin
DR9 -0.01 dB -11.15 dB 2:28 14-Cindy Blackman Santana Drum Solo
DR8 0.00 dB -11.14 dB 9:44 15-A Love Supreme
DR8 0.00 dB -10.12 dB 15:06 16-Shake It Up and Go
––––––––––––––––––––––––––––––––––––––––

Number of tracks: 16
Official DR value: DR9

Samplerate: 96000 Hz
Channels: 2
Bits per sample: 24
Bitrate: 3038 kbps
Codec: FLAC
================================================================================


All files were fully tagged.