Santana - Santana (1969) [Japan 2020] MCH SACD ISO + DSD64 + Hi-Res FLAC

Posted By: HDAtall
Santana - Santana (1969) [Japan 2020] MCH SACD ISO + DSD64 + Hi-Res FLAC

Santana - Santana (1969) [Japan 2020]
SACD Rip | SACD ISO | DSD64 2.0 & DST64 5.0 > 1-bit/2.8224 MHz | 37:09 minutes | Scans included | 2,56 GB
or DSD64 2.0 Stereo (from SACD-ISO to Tracks.dsf) > 1-bit/2.8224 MHz | Basic Scans included | 1,05 GB
or FLAC Stereo (carefully converted & encoded to tracks) 24bit/96 kHz | 36:57 m | Scans included | 882 MB
Features Stereo and Quadrophonic Surround Sound | Sony Japan # SICJ 10034

Santana's self-titled 1969 debut album is released as a multi-channel quad SACD Hybrid edition for the first time by Sony Japan. Converted from the original 1974 Quadraphonic master to DSD, plus the stereo mix mastered from the latest remastering.

Carlos Santana was originally in his own wing of the Latin Rock Hall of Fame, neither playing Afro-Cuban with rock guitar, as did Malo, nor flavoring mainstream rock with percussion, as did Chicago. His first record, as with the best fusion, created something a little different than just a mixture – a new style that, surprisingly, remains all his own. Granted that Latin music has seeped into the mainstream since, but why aren't Van Halen and Metallica listening to this? Where they simmer, Santana boils over.

Tracklist:

01. Waiting
02. Evil Ways
03. Shades of Time
04. Savor
05. Jingo
06. Persuasion
07. Treat
08. You Just Don't Care
09. Soul Sacrifice

Personnel
Carlos Santana - guitar, backing vocals
Gregg Rolie - lead vocals, Hammond organ, piano
David Brown - bass guitar
Michael Shrieve - drums
Michael Carabello - congas, percussion
José "Chepito" Areas - timbales, congas, percussion
Marcus Malone - congas (uncredited)

Recorded & Mixed in May 1969 at Pacific Recording, San Mateo, CA.
Original Quadrophonic Sound and Remix Supervision by Al Lawrence.
Quadrophonic Remix Engineer: Larry Keyes.

foobar2000 1.6.2 / Dynamic Range Meter 1.1.1

––––––––––––––––––––––––––––––––––––––––
Analyzed: Santana / Santana (SA-CD Multi-ch Hybrid Edition)
––––––––––––––––––––––––––––––––––––––––

DR Peak RMS Duration Track
––––––––––––––––––––––––––––––––––––––––
DR10 -3.84 dB -21.54 dB 4:05 01-Waiting
DR10 -4.64 dB -21.11 dB 4:05 02-Evil Ways
DR9 -5.21 dB -21.55 dB 3:14 03-Shades of Time
DR9 -5.39 dB -20.89 dB 2:51 04-Savor
DR10 -4.04 dB -19.92 dB 4:18 05-Jingo
DR9 -4.66 dB -19.54 dB 2:37 06-Persuasion
DR10 -4.03 dB -22.14 dB 4:45 07-Treat
DR9 -6.04 dB -20.26 dB 4:37 08-You Just Don't Care
DR9 -4.78 dB -21.46 dB 6:37 09-Soul Sacrifice
––––––––––––––––––––––––––––––––––––––––

Number of tracks: 9
Official DR value: DR9

Samplerate: 2822400 Hz / PCM Samplerate: 176400 Hz
Channels: 5
Bits per sample: 1
Bitrate: 14112 kbps
Codec: DST64
================================================================================

––––––––––––––––––––––––––––––––––––––––
Analyzed: Santana / Santana (SA-CD Multi-ch Hybrid Edition)
––––––––––––––––––––––––––––––––––––––––

DR Peak RMS Duration Track
––––––––––––––––––––––––––––––––––––––––
DR8 -5.98 dB -16.33 dB 4:05 01-Waiting
DR8 -6.04 dB -16.75 dB 3:59 02-Evil Ways
DR9 -6.00 dB -16.33 dB 3:13 03-Shades of Time
DR8 -6.01 dB -16.23 dB 2:46 04-Savor
DR8 -5.96 dB -16.47 dB 4:18 05-Jingo
DR8 -5.96 dB -15.40 dB 2:36 06-Persuasion
DR9 -6.10 dB -19.39 dB 4:45 07-Treat
DR9 -6.02 dB -16.25 dB 4:38 08-You Just Don't Care
DR8 -5.90 dB -15.53 dB 6:37 09-Soul Sacrifice
––––––––––––––––––––––––––––––––––––––––

Number of tracks: 9
Official DR value: DR8

Samplerate: 2822400 Hz / PCM Samplerate: 176400 Hz
Channels: 2
Bits per sample: 1
Bitrate: 5645 kbps
Codec: DSD64


Thanks to kiukku!
Uncompressed SACD ISO size > 2,78 GB
>