Sara K. - Hell Or High Water (2006) [2.0 & 5.1] SACD-ISO + Hi-Res FLAC

Posted By: HDAtall
Sara K. - Hell Or High Water (2006) [2.0 & 5.1] SACD-ISO + Hi-Res FLAC

Sara K. - Hell Or High Water (2006) [2.0 & 5.1]
SACD ISO | DST64 2.0 & 5.1 > 1-bit/2.8224 MHz | 50:12 minutes | Full Scans included | 3,08 GB
or FLAC 2.0 Stereo (converted with foobar2000 to tracks) 24bit/88,2 kHz | Scans included | 1015 MB

"Hell or High Water" (Stockfisch Records), Sara K.'s second album produced outside of the US, is not only a brilliant poetic and musical achievement. It is a great sounding recording as well. This SACD yields 10 previously unreleased songs, featuring the late Chris Jones on guitar and dobro. It is Texas' Singer-Songwriter 10th CD to date.

The songs of this album once more open up Sara K.’s musical universe, or as you will: her soul. She is a brave woman who goes where ever she wants and takes the listener with her. For the former you need conviction, for the latter seduction. Her often imagistic lyrics are singular in their emotional intensity – easy to accept but strong in their content – a velvet hand in a boxing glove which you would like to send you into the realm of dreams.

Sara K is an international hidden treasure. She is a superb singer with a range of emotion in her voice that will melt the coldest heart. She is a superb songwriter with an endless capacity to write a song that you will know in seconds and love for years. In fact “superb” seems to be the bottom line. Can anyone explain why there isn’t a Sara K CD in every collection? Hell or High Water is Sara K at her very very best. – PBS Radio Australia

Tracklist:

01. Stars
02. Trouble (In Your Eyes)
03. Curtain Calls
04. Fish Outta Water
05. Something More
06. Hell or High Water
07. I Can't Stand the Rain
08. Set You Free
09. Streetlight's On
10. Ship In A Bottle

foobar2000 1.3.10 / Dynamic Range Meter 1.1.1

––––––––––––––––––––––––––––––––––––––––
Analyzed: sara k. / HELL OR HIGH WATER
––––––––––––––––––––––––––––––––––––––––

DR Peak RMS Duration Track
––––––––––––––––––––––––––––––––––––––––
DR11 -4.78 dB -20.46 dB 4:13 01-stars
DR12 -4.52 dB -20.27 dB 5:46 02-trouble (in your eyes)
DR13 -3.44 dB -20.90 dB 3:23 03-curtain calls
DR13 -4.31 dB -21.04 dB 4:28 04-fish outta water
DR11 -3.77 dB -22.07 dB 6:19 05-something more
DR12 -4.24 dB -20.28 dB 6:04 06-hell or high water
DR13 -4.35 dB -21.37 dB 3:38 07-i can´t stand the rain
DR13 -4.39 dB -20.28 dB 5:37 08-set you free
DR11 -5.21 dB -21.25 dB 4:22 09-streetlight´s on
DR13 -4.40 dB -22.84 dB 6:22 10-ship in a bottle
––––––––––––––––––––––––––––––––––––––––

Number of tracks: 10
Official DR value: DR12

Samplerate: 88200 Hz
Channels: 6
Bits per sample: 24
Bitrate: 16934 kbps
Codec: DST64
================================================================================

––––––––––––––––––––––––––––––––––––––––
Analyzed: sara k. / HELL OR HIGH WATER
––––––––––––––––––––––––––––––––––––––––

DR Peak RMS Duration Track
––––––––––––––––––––––––––––––––––––––––
DR9 -4.95 dB -16.09 dB 4:13 01-stars
DR9 -4.56 dB -16.11 dB 5:46 02-trouble (in your eyes)
DR10 -3.76 dB -16.58 dB 3:23 03-curtain calls
DR10 -4.46 dB -17.05 dB 4:28 04-fish outta water
DR10 -3.45 dB -16.55 dB 6:19 05-something more
DR9 -3.73 dB -15.38 dB 6:04 06-hell or high water
DR11 -4.24 dB -17.40 dB 3:38 07-i can´t stand the rain
DR10 -4.63 dB -16.56 dB 5:37 08-set you free
DR9 -5.30 dB -16.93 dB 4:22 09-streetlight´s on
DR10 -5.01 dB -17.98 dB 6:22 10-ship in a bottle
––––––––––––––––––––––––––––––––––––––––

Number of tracks: 10
Official DR value: DR10

Samplerate: 88200 Hz
Channels: 2
Bits per sample: 24
Bitrate: 5645 kbps
Codec: DST64


Uncompressed SACD ISO size > 2,91 GB
>
SACD ISO 1
SACD ISO 2
SACD ISO 3
SACD ISO 4
FLAC (Stereo)
>