Tags
Language
Tags

Savina Yannatou, Primavera en Salonico - Songs Of Thessaloniki (2015) [Official Digital Download 24-bit/96kHz]

Posted By: HDV
Savina Yannatou, Primavera en Salonico - Songs Of Thessaloniki (2015) [Official Digital Download 24-bit/96kHz]

Savina Yannatou, Primavera en Salonico - Songs Of Thessaloniki (2015)
FLAC (tracks) 24-bit/96 kHz | Time - 67:42 minutes | 1,29 GB
Studio Master, Official Digital Download | Artwork: Digital booklet

Savina Yannatou's fourth ECM album is a dazzling evocation of her band's hometown, plunging deep into its rich and complex history. Once known colloquially as the Jerusalem of the Balkans, Thessaloniki has been home to a host of cultures, religions and ethnic communities. Greeks, Jews, Turks, Bulgarians, Serbs, Armenians, Slav-Macedonians and Pontiac Greeks have shared the city's diverse life. Yannatou gives all of them a voice, even casting an Irish song about Salonika into this multi-lingual programme in which she shines as a unique interpreter and spokeswoman for the city's ghosts. As ever, Primavera en Salonico are a delight, one of the most resourceful bands of any idiom, as they negotiate the inspired - and very varied - arrangements of Kostas Vomvolos.

The title of Savina Yannatou's fourth ECM album seems simple enough. The old city is home to the singer and her virtuoso band, Primavera en Salonico. But this 17-track set is far more than a collection of songs from a particular place – especially one as socially complex as Thessaloniki. Historically, it drew travelers, immigrants and refugees of many creeds, cultures and religions: Sephardic Jews (at one time its biggest population), Turks, Pontiac Greeks, Armenians, Serbs, Bulgarians, even Northern Europeans. It flowered in the late 19th and early 20th century, as many religions and cultures lived in relative harmony until near the end of the First World War. This music reflects the transcultural past and their influence upon the present. Yannatou and Primavera en Salonico, under the direction of multi-instrumentalist /arranger Kostas Vomvolos, remake and remodel them – sometimes minimally, sometimes radically, always soulfully – in their own image. Album opener "Apolytikion Agiou Dimitriou" is a Byzantine-era Greek hymn to the city's patron Saint Dimitrios rendered with haunting reverence amid droning accordion and bowed bass; it is reprised as an instrumental as a bookend. The Sephardic "A la scola del Alianza" with flute, accordion, and nylon string guitar adorns Yannatou's singing. She has always refused fashionable, disciplined classicism in favor of an unaffected roots style that gives her freedom to improvise and uncover tones, rhythms and phrasing otherwise hidden in melody. The traditional Pontiac Greek song, "The Patrida Mou Ehasa," is reshaped to include Middle Eastern modes; oud, ney and percussion layer an extra dimension onto its contemporary lyric while retaining the core of its original melody. The gorgeous ""Iptidadan Yol Sorarsan," is a Turkish Sufi hymn about the Prophet Muhammad's son-in-law, while "Calin Davullari," a Turkish folk song, is delivered almost straight with slight instrumental embellishments. "La Cantigua del Fuego" is about the fire of 1917 that destroyed the center of the city. It commences rapidly, in whispered, terrified spoken lines atop urgently plucked oud and violin. Eventually a Sephardic melody mournfully asserts itself from the ashes, revealing how much has been lost. Elsewhere on the album, improvisation and gently dissonant tonalities entwine with traditional frameworks, as in the Bulgarian song "Dimo Is Solun Heshe" and the two remebetika songs "To Yelekaki" and "Yedi Kule." "To Salonica" is an Irish folk song that relates the aftermath of WWI's toll on Thessaloniki. Yannatou sings in English, with a Weimar cabaret lilt, underscoring the poignancy in the lyric. The Greek "Poulakin Eiha Se Klouvi" is delivered as a near modal blues, while the Kosovo-Serbian hymn "Jelena Solun Devojko" mirrors the feel with trilling accordion drones, groaning violin, and elliptical percussion, before it transforms into a slow, sacred dance. Songs of Thessaloniki is a tribute but it is also an extension of history. Yannatou and Primavera en Salonico made room for the ghost shadows of the musical and cultural past to echo, reverberate and inform their present.

Tracklist:

01 - Apolitikion Agiou Dimitriou (1)
02 - A La Scola Del Allianza
03 - Tin Patrida Mou Ehasa
04 - Dimo Is Solun Hodeshe
05 - La Cantiga Del Fuego
06 - Una Muchacha En Selanica
07 - Iptidadan Yol Sorarsan
08 - Qele-Qele
09 - Calin Davullari
10 - To Yelekaki
11 - Salonika
12 - Inchu Bingyole Mdar?
13 - Jelena Solun Devojko
14 - Yedi-Koule
15 - Poulakin Eiha Se Klouvi
16 - Pismo Dojde Od Soluna Grada
17 - Apolitikion Agiou Dimitriou (2)

Produced by Manfred Eicher.
Recording Engineers: Yiorgos Kariotis, Yannis Paxevanis.
Recorded on February 19-21, 2014 at Sierra Studios, Athens, Greece.

Musicians:
Savina Yannatou - voice
Kostas Vomvolos - qanun, accordion
Yannis Alexandris - oud, guitar
Kyriakos Gouventas - violin
Harris Lambrakis - nay
Michalis Siganidis - double bass
Kostas Theodorou - percussion

Analyzed: Savina Yannatou, Primavera en Salonico / Songs Of Thessaloniki
––––––––––––––––––––––––––––––––––––––––

DR Peak RMS Duration Track
––––––––––––––––––––––––––––––––––––––––
DR11 -6.08 dB -22.70 dB 2:24 01-Apolitikion Agiou Dimitriou (1)
DR12 -4.09 dB -21.06 dB 2:15 02-A La Scola Del Allianza
DR12 -1.00 dB -18.11 dB 5:45 03-Tin Patrida Mou Ehasa
DR12 -1.96 dB -18.89 dB 5:19 04-Dimo Is Solun Hodeshe
DR12 -1.79 dB -18.87 dB 4:13 05-La Cantiga Del Fuego
DR12 -5.89 dB -23.11 dB 4:20 06-Una Muchacha En Selanica
DR13 -1.78 dB -18.25 dB 5:36 07-Iptidadan Yol Sorarsan
DR11 -1.45 dB -16.67 dB 3:18 08-Qele-Qele
DR13 -1.32 dB -17.44 dB 5:23 09-Calin Davullari
DR12 -1.71 dB -19.63 dB 3:59 10-To Yelekaki
DR14 -1.64 dB -20.27 dB 2:58 11-Salonika
DR13 -1.01 dB -18.54 dB 1:59 12-Inchu Bingyole Mdar?
DR11 -3.78 dB -20.25 dB 4:19 13-Jelena Solun Devojko
DR13 -2.17 dB -20.96 dB 4:45 14-Yedi-Koule
DR12 -4.78 dB -23.24 dB 4:15 15-Poulakin Eiha Se Klouvi
DR12 -1.43 dB -17.53 dB 4:32 16-Pismo Dojde Od Soluna Grada
DR11 -13.90 dB -31.07 dB 2:22 17-Apolitikion Agiou Dimitriou (2)
––––––––––––––––––––––––––––––––––––––––

Number of tracks: 17
Official DR value: DR12

Samplerate: 96000 Hz
Channels: 2
Bits per sample: 24
Bitrate: 2141 kbps
Codec: FLAC
================================================================================


Thanks to the Original customer!