Sayaka Tsuruta - All The Things You Are (2012) [Japan 2016] SACD ISO + DSD64 + Hi-Res FLAC

Posted By: HDAtall
Sayaka Tsuruta - All The Things You Are (2012) [Japan 2016] SACD ISO + DSD64 + Hi-Res FLAC

Sayaka Tsuruta - All The Things You Are (2012) [Japan 2016]
SACD Rip | SACD ISO | DSD64 2.0 > 1-bit/2.8224 MHz | 49:44 minutes | Front/Rear Covers | 1,63 GB
or DSD64 2.0 (from SACD-ISO to Tracks.dsf) > 1-bit/2.8224 MHz | Front/Rear Covers | 1,43 GB
or FLAC (carefully converted & encoded to tracks) 24bit/48 kHz | Front/Rear Covers | 631 MB

For this Japanese Venus Records' release, Sayaka Tsuruta joins Dan Nimmer, David Wong and Pete Van Nostrand, to compile a 12-track SACD full of jazz's favorite staples from Bart Howard, Cole Porter and many more.

Tracklist:

01. I Didn't Know What Time Is Was
02. Alone Together
03. It's A Sin To Tell A Lie
04. The Shadow Of Your Smile
05. Fly Me To The Moon
06. Moon River
07. So In Love
08. Lullaby Of Birdland
09. Night And Day
10. Bei Mir Bist Du Schön
11. Misty
12. All The Things You Are

Personnel
Sayaka Tsuruta - vocals
Dan Nimmer - piano
David Wong - bass
Pete Van Nostrand - drums

Produced by Wakana Hara. Engineered by Katherine Miller.
Recorded on January 13-15, 2012 at Avatar Studio in New York.
Mixed & Mastered by Tetsuo Hara.
Venus Hyper Magnum Sound Direct Mix. VENUS Japan # VHGD-193.

foobar2000 1.1.2 / Dynamic Range Meter 1.1.1

––––––––––––––––––––––––––––––––––––––––
Analyzed: SAYAKA TSURUTA / All The Things You Are
––––––––––––––––––––––––––––––––––––––––

DR Peak RMS Duration Track
––––––––––––––––––––––––––––––––––––––––
DR7 -4.54 dB -13.84 dB 4:08 01-I Didn't Know What Time Is Was
DR6 -4.74 dB -12.16 dB 3:58 02-Alone Together
DR6 -4.54 dB -12.73 dB 2:48 03-It's A Sin To Tell A Lie
DR7 -4.56 dB -13.29 dB 4:56 04-The Shadow Of Your Smile
DR8 -4.36 dB -14.20 dB 3:51 05-Fly Me To The Moon
DR7 -4.55 dB -12.79 dB 3:49 06-Moon River
DR8 -4.64 dB -13.78 dB 4:33 07-So In Love
DR7 -4.58 dB -12.24 dB 4:07 08-Lullaby Of Birdland
DR6 -4.46 dB -12.23 dB 3:44 09-Night And Day
DR6 -4.74 dB -13.16 dB 4:08 10-Bei Mir Bist Du Schön
DR6 -4.64 dB -12.45 dB 5:05 11-Misty
DR6 -4.64 dB -12.11 dB 4:36 12-All The Things You Are
––––––––––––––––––––––––––––––––––––––––

Number of tracks: 12
Official DR value: DR7

Samplerate: 2822400 Hz / PCM Samplerate: 176400 Hz
Channels: 2
Bits per sample: 24
Bitrate: 5645 kbps
Codec: DSD64


Thanks to jazzyman!
Uncompressed SACD ISO size > 2,01 GB
>