Tags
Language
Tags

Sayaka Tsuruta - Whisper Not (2018) [Venus Japan] SACD ISO + DSD64 + Hi-Res FLAC

Posted By: HDAtall
Sayaka Tsuruta - Whisper Not (2018) [Venus Japan] SACD ISO + DSD64 + Hi-Res FLAC

Sayaka Tsuruta - Whisper Not (2018) [Venus Japan]
SACD Rip | SACD ISO | DSD64 2.0 > 1-bit/2.8224 MHz | 63:05 minutes | Front/Rear Covers | 1,91 GB
or DSD64 2.0 (from SACD-ISO to Tracks.dsf) > 1-bit/2.8224 MHz | Front/Rear Covers | 1,72 GB
or FLAC (carefully converted & encoded to tracks) 24bit/48 kHz | Front/Rear Covers | 760 MB

On this release for Japanese Venus Records, Sayaka Tsuruta joins Ken Peplowski and the world-class Ted Rosenthal piano trio to complile a 12-track SACD full of jazz favorites.

Tracklist:

01. My Funny Valentine
02. So In Love
03. Just One Of Those Things
04. The Look Of Love
05. I Will Wait For You
06. Left Alone
07. My One And Only Love
08. I Wish You Love
09. Whisper Not
10. You Must Believe In Spring
11. I'm A Fool To Want You
12. Harlem Nocturne

Personnel
Sayaka Tsuruta - vocals
Ken Peplowski - clarinet, tenor sax
Ted Rosenthal - piano
Martin Wind - bass
Matt Wilson - drums

Produced by Wakana Hara. Engineered by Tom Tedesco.
Recorded on February 26-28, 2018 at Tedesco Studio in New York.
Mixed & Mastered by Tetsuo Hara.
Venus Hyper Magnum Sound Direct Mix. VENUS Japan # VHGD-309.

foobar2000 1.6.6 / Dynamic Range Meter 1.1.1

––––––––––––––––––––––––––––––––––––––––
Analyzed: SAYAKA TSURUTA / Whisper Not
––––––––––––––––––––––––––––––––––––––––

DR Peak RMS Duration Track
––––––––––––––––––––––––––––––––––––––––
DR7 -4.53 dB -14.90 dB 5:43 01-My Funny Valentine
DR6 -4.50 dB -11.94 dB 10:02 02-So In Love
DR6 -4.56 dB -12.36 dB 3:12 03-Just One Of Those Things
DR6 -4.67 dB -12.54 dB 3:59 04-The Look Of Love
DR7 -4.68 dB -13.03 dB 6:06 05-I Will Wait For You
DR6 -4.68 dB -13.73 dB 3:22 06-Left Alone
DR6 -4.48 dB -11.88 dB 5:08 07-My One And Only Love
DR7 -4.66 dB -13.52 dB 3:30 08-I Wish You Love
DR6 -4.63 dB -11.87 dB 4:25 09-Whisper Not
DR7 -4.63 dB -13.78 dB 4:48 10-You Must Believe In Spring
DR6 -4.49 dB -13.11 dB 6:44 11-I'm A Fool To Want You
DR6 -4.50 dB -12.23 dB 6:14 12-Harlem Nocturne
––––––––––––––––––––––––––––––––––––––––

Number of tracks: 12
Official DR value: DR6

Samplerate: 2822400 Hz / PCM Samplerate: 176400 Hz
Channels: 2
Bits per sample: 24
Bitrate: 5645 kbps
Codec: DSD64


Thanks to jazzyman!
Uncompressed SACD ISO size > 2,53 GB
>