Scott Hamilton - Scott Hamilton With Strings (1993) [Official Digital Download 24/88]

Posted By: HDV
Scott Hamilton - Scott Hamilton With Strings (1993) [Official Digital Download 24/88]

Scott Hamilton - Scott Hamilton With Strings (1993)
FLAC (tracks) 24 bit/88,2 kHz | Time - 58:08 minutes | 1,15 GB
Jazz | Official Digital Download - Source: HDTracks.com | Digital Booklet

Saxophone heavyweight Scott Hamilton wanted to make an album that would stand up to the best of them and he wanted to do it the right way. To do this he choose some of his favorite ballads and played the songs live in studio with a large string section, with no overdubs or laid-in tracks. This album was arranged and conducted by Alan Broadbent. The record was recorded in Hollywood on October 5 & 6, 1992.

Tenor saxophonist Scott Hamilton was so consistent on his many albums for Concord that none are throwaways. This particular one, though, is of lesser interest than most. Hamilton is backed by a 20-piece string section arranged by pianist Alan Broadbent, and largely sticks to slow ballads. His tone on tenor is typically beautiful and the music is quite tasteful, but it lacks much variety. No surprises occur in the arrangements (everything is pretty) and, although there is some double-timing, Hamilton's playing is consistently lyrical and a bit lazy, as if shy to shake up the proceedings. This disc is best experienced in small doses for, if played all the way through, the results are a bit sleepy and rather predictable.

Tracklist:

01 - My Foolish Heart
02 - Goodbye Mr. Evans
03 - The Shining Sea
04 - Angel Eyes
05 - Heart's Desire
06 - The Look Of Love
07 - Nancy (With The Laughing Face)
08 - Young And Foolish
09 - I Concentrate On You
10 - Tonight I Shall Sleep With A Smile On My Face

Analyzed: Scott Hamilton / Scott Hamilton With Strings
––––––––––––––––––––––––––––––––––––––––

DR Peak RMS Duration Track
––––––––––––––––––––––––––––––––––––––––
DR12 -3.50 dB -19.00 dB 5:28 01-My Foolish Heart
DR14 -3.10 dB -20.44 dB 7:29 02-Goodbye Mr. Evans
DR13 -3.14 dB -18.55 dB 6:07 03-The Shining Sea
DR12 -3.13 dB -19.06 dB 6:09 04-Angel Eyes
DR14 -3.36 dB -20.48 dB 5:27 05-Heart's Desire
DR13 -3.16 dB -18.43 dB 5:15 06-The Look Of Love
DR13 -3.12 dB -18.48 dB 4:21 07-Nancy (With The Laughing Face)
DR12 -3.67 dB -19.75 dB 5:26 08-Young And Foolish
DR13 -3.20 dB -18.76 dB 6:48 09-I Concentrate On You
DR12 -3.10 dB -19.03 dB 5:35 10-Tonight I Shall Sleep With A Smile On My Face
––––––––––––––––––––––––––––––––––––––––

Number of tracks: 10
Official DR value: DR13

Samplerate: 88200 Hz
Channels: 2
Bits per sample: 24
Bitrate: 2660 kbps
Codec: FLAC
================================================================================


Thanks to the Original customer!