Subcategories

Sepultura - Chaos A.D. (1993/2017) [Official Digital Download 24-bit/96kHz]

Posted By: HDV
Sepultura - Chaos A.D. (1993/2017) [Official Digital Download 24-bit/96kHz]

Sepultura - Chaos A.D. (1993/2017) [Remastered]
FLAC (tracks) 24-bit/96 kHz | Time - 47:09 minutes | 1,11 GB
Studio Master, Official Digital Download | Artwork: Front cover

"Chaos A.D." is the fifth studio album by Brazilian heavy metal band Sepultura. Although the album is considered Thrash Metal, it saw a stylistic departure from the band's earlier style, by incorporating a new groove metal sound. In 2017, it was ranked 29th on Rolling Stone's "100 Greatest Metal Albums of All Time".

Sepultura truly claimed its place on the heavy-metal world stage with 1993's „Chaos A.D.“, a focused, dose-of-thunder release that crystallized the Brazilian outfit's aesthetic. Propulsive rhythms, gravel-voice shouting, and epic guitar riffs drenched in nerve-fraying distortion come together in a perfect marriage here. But while Sepultura's music was originally inspired by the likes of Metallica and Slayer, „Chaos A.D.“ feels considerably more stripped-down than the music of these mentors–progressive changes and long, showy solos are few and far between. Instead, Sepultura emphasizes fierce, straightforward structures that have more in common with hardcore's no-nonsense approach than metal's glamorous flash. The band's lyrics take a distinctly political turn on „Chaos A.D.“, addressing issues such as state-generated war ("Refuse/Resist") and biotechnology ("Biotech Is Godzilla"–with lyrics written by Jello Biafra). The weightiness of the themes is well suited to the crushing, apocalyptic sound of the quartet (Igor Cavalera's drumming alone could bulldoze a medium-sized city), and the intensity of the performances throughout should appeal to fans of both traditional and hardcore metal. This is an essential album from one of the most important aggressive rock bands of the 1990s.

Sepultura - Chaos A.D. (1993/2017) [Official Digital Download 24-bit/96kHz]

Chaos A.D. was the record where everything came together for Sepultura, when they graduated from being an excellent, if derivative, band into one of metal's most unique voices. Their strident political dissidence is more focused than ever, referring explicitly to injustices in their native Brazil. The band's thick, chunky guitars, busy percussion, and hoarsely shouted vocals may be rooted in death metal, but it was often hard to call Sepultura a true death metal band, even if they flirted heavily with the style by way of Slayer; Chaos A.D. is rooted just as much in hardcore punk in its lean, stripped-down assault, featuring a cover of New Model Army's "The Hunt" and a collaboration with Jello Biafra on "Biotech Is Godzilla." At a time when '80s thrash giants like Metallica and Megadeth were streamlining their music for greater accessibility, Sepultura's aggression actually increased along with their tightened focus, borrowing from hardcore arguably more effectively than any other true metal band. Additionally, Sepultura began to draw upon the influences of their native Brazil, audible in the acoustic instrumental "Kaiowas" and in the way the band's complex rhythms move and breathe, to offer a much wider range than any of their contemporaries seemed willing to pursue. The band's songwriting became almost airtight, giving up the breakneck speed and long progressive passages borrowed from mid-'80s Metallica, and concentrating instead on creating texture and dissonance. But really, it's the unbelievably powerful rhythmic base provided by Igor Cavalera that gives Chaos A.D. its knockout punch. Endlessly playable (there isn't a wasted or unnecessary note on the album), passionately performed, and a sign that a new metal underground was finally bearing artistic fruit, Chaos A.D. ranks as one of the greatest heavy metal albums of all time. It's a remarkable achievement not only in its concentrated power and originality, but also in the degree to which Sepultura eclipsed their idols in offering a vision of heavy metal's future – a vision that would only grow more compelling with their next release.

Tracklist:

01 - Refuse / Resist
02 - Territory
03 - Slave New World
04 - Amen
05 - Kaiowas
06 - Propaganda
07 - Biotech Is Godzilla
08 - Nomad
09 - We Who Are Not As Others
10 - Manifest
11 - The Hunt
12 - Clenched Fist

Produced by Andy Wallace.
Recorded in 1992-93 at Rockfield Studios and Chepstow Castle, Wales.
Digitally Remastered.

Line-Up:
Max Cavalera - vocals, acoustic guitar
Andreas Kisser - acoustic and electric guitars
Paulo Jr. - bass, percussion
Igor Cavalera - drums, percussion

Analyzed: Sepultura / Chaos A.D. (Remastered)
––––––––––––––––––––––––––––––––––––––––

DR Peak RMS Duration Track
––––––––––––––––––––––––––––––––––––––––
DR6 -0.10 dB -7.75 dB 3:19 01-Refuse / Resist
DR6 -0.10 dB -7.43 dB 4:47 02-Territory
DR7 -0.10 dB -8.37 dB 2:55 03-Slave New World
DR7 -0.10 dB -7.97 dB 4:27 04-Amen
DR11 -0.10 dB -14.91 dB 3:46 05-Kaiowas
DR7 -0.10 dB -8.66 dB 3:33 06-Propaganda
DR7 -0.10 dB -8.23 dB 1:52 07-Biotech Is Godzilla
DR7 -0.10 dB -8.72 dB 4:59 08-Nomad
DR7 -0.10 dB -7.94 dB 3:42 09-We Who Are Not As Others
DR7 -0.10 dB -7.83 dB 4:49 10-Manifest
DR7 -0.10 dB -7.79 dB 3:59 11-The Hunt
DR7 -0.10 dB -9.39 dB 5:02 12-Clenched Fist
––––––––––––––––––––––––––––––––––––––––

Number of tracks: 12
Official DR value: DR7

Samplerate: 96000 Hz
Channels: 2
Bits per sample: 24
Bitrate: 3113 kbps
Codec: FLAC
================================================================================


Thanks to the Original customer!