Sergio Lara - The Incredible Latin Guitar (2014) PS3 ISO + Hi-Res FLAC

Posted By: HDAtall
Sergio Lara - The Incredible Latin Guitar (2014) PS3 ISO + Hi-Res FLAC

Sergio Lara - The Incredible Latin Guitar Of Sergio Lara(2014)
PS3 Rip | SACD ISO | DST64 2.0 > 1-bit/2.8224 MHz | 61:46 minutes | Scans included | 1,01 GB
or FLAC(converted with foobar2000 to tracks) 24bit/88,2 kHz | Full Scans included | 1,27 GB
Intermusic S.A. / Top Music International Ltd. # TM-SACD7022.2

Latin Grammy nominated guitarist and composer Sergio Lara began his musical journey at age 9, learning classical guitar and Latin rhythms with a guitar instructor and later on the music of The Beatles and many other artists in various styles like flamenco, blues, rock, folk, and bluegrass. He found the music of Django Reinhardt, Wes Montgomery, John McLaughlin, Paco De Lucia and many others and fell in love with Jazz, learning to play various guitar styles as well as other instruments like mandolin and 5 string banjo. Throughout the years, Sergio Lara has played in various venues, including many private events, schools, jazz clubs and important concert halls in the US and Mexico, like "El Palacio De Bellas Artes" ("The Palace of Fine Arts") in Mexico City, and various music festivals like the "Jazz Tracks Festival" in Lake Tahoe, NV, "America Festival" in San Jose, CA, "JazzSAlive" in San Antonio, TX, "Catalina Island Jazz Festival" and many more and has shared the stage with many international artists like Julio Iglesias, Ray Charles, Strunz & Farah, Craig Chaquico, Larry Carlton, Bireli Lagrene, Sam Bush, Dr. John, Wayne Shorter and many more. He has also been included in more than 2 dozen CD compilations released around the world, that also include Paco de Lucia, John McLaughlin, Al Di Meola, Pat Metheny, Vicente Amigo, Sting, George Benson, Dave Brubeck, Strunz & Farah, Ottmar Liebert, Egberto Gismonti and Oscar Castro Neves, among many others and has played in various albums by well known artists like Peter Rowan, Tish Hinojosa, Ron Young and many more. Now Sergio continues his musical journey with his newest release, The Incredible Latin Guitar of Sergio Lara.

Tracklist:

01. Short Visit
02. La Llorona
03. Makada
04. Lonesome Mandolin
05. Le Gret
06. Flamgrass
07. Pair O'Dice
08. Kimes Park
09. Waltz
10. Oh, Shake It
11. With The Rain
12. Possum Blues
13. Old Wolf

Remastered by Povee Chan.

foobar2000 1.3.17 / Dynamic Range Meter 1.1.1

––––––––––––––––––––––––––––––––––––––––
Analyzed: Sergio Lara / The Incredible Latin Guitar of Sergio Lara
––––––––––––––––––––––––––––––––––––––––

DR Peak RMS Duration Track
––––––––––––––––––––––––––––––––––––––––
DR12 -6.66 dB -20.32 dB 4:56 01-Short Visit
DR14 -8.05 dB -24.10 dB 4:01 02-La Llorona
DR12 -5.63 dB -19.57 dB 4:46 03-Makada
DR10 -6.81 dB -21.04 dB 1:44 04-Lonesome Mandolin
DR11 -6.04 dB -19.58 dB 3:37 05-Le Gret
DR12 -5.97 dB -20.24 dB 6:36 06-Flamgrass
DR13 -6.55 dB -20.80 dB 4:59 07-Pair O'Dice
DR12 -4.73 dB -19.56 dB 5:34 08-Kimes Park
DR11 -6.11 dB -20.03 dB 6:05 09-Waltz
DR11 -5.99 dB -18.28 dB 3:53 10-Oh, Shake It
DR13 -5.84 dB -22.67 dB 7:17 11-With The Rain
DR11 -7.21 dB -19.82 dB 2:01 12-Possum Blues
DR11 -5.99 dB -19.15 dB 6:17 13-Old Wol, f
––––––––––––––––––––––––––––––––––––––––

Number of tracks: 13
Official DR value: DR12

Samplerate: 2822400 Hz / PCM Samplerate: 88200 Hz
Channels: 2
Bits per sample: 1
Bitrate: 5645 kbps
Codec: DST64


Thanks to PS³SACD!
Uncompressed SACD ISO size > 977 MB
>