Silke Eberhard Trio - The Being Inn (2017) [Official Digital Download]

Posted By: HDV
Silke Eberhard Trio - The Being Inn (2017) [Official Digital Download]

Silke Eberhard Trio - The Being Inn (2017)
FLAC (tracks) 24-bit/44,1 kHz | Time - 51:40 minutes | 596 MB
Studio Master, Official Digital Download | Artwork: Front cover

The first sounds you hear on this album from the trio of saxophonist Silke Eberhard are her footsteps followed by the creak of an opening door, sounds which invite the listener into The Being Inn and the inventive world of Eberhard’s compositions. This third album from the trio, which also includes bassist Jan Roder and drummer Kay Lübke, establishes the group’s musical chemistry and intuitive, improvisational approach.

Silke Eberhard is a saxophonist, clarinetist and composer based in Berlin, and on this album she focuses on alto saxophone and bass clarinet, in the company of Jan Roder on bass and Kay Lubke on drums. This is the trio's third album, and it also marks ten years as a working group. The conceptual inspiration of the album is of an an imaginary inn that the saxophonist pictured as she composed songs for this project, which vary between a lengthy suite and short vignettes. "Ding Dong" begins this album and opens the door, creating an appealing performance that takes into account the historic music of Eric Dolphy and Ornette Coleman with ripe alto saxophone building a taut and exciting improvisation in consort with flexible bass and drums. The most ambitious piece on the album, "Willisau Suite," is a lengthy and episodic performance that takes melodic sub-themes and uses the them as the basis for an ever evolving collective improvisation that stretches out to nearly twenty minutes. The remainder of the album alternates between short three to five minute songs interspersed by even briefer improvisations lasting thirty to fifty seconds. The most noteworthy of these are the spacious "Minatur" which has Lubke deftly using brushes and creating a soft rhythm that is made whole with the addition of subtly played saxophone and bass, creating a melodic and mellow performance. "Kanon" mines the Dolphy influence, making a bass clarinet feature that is supported by bass and drums. The music created has a thoughtful forward looking approach, allowing much open space to permeate the sound allowing for a wide range of possibilities. The short but very urgent "Towels" leads to "In Drei" which has very taut and impressive bass and drums setting the foundation for the music. Eberhard's saxophone weaves in an out of the accompaniment creating an upbeat and infectious sound, with the improvisation developing its own inner logic. "8915" is another saxophone based piece, an uptempo and pithy performance, with a fine feature for bass included, and the musicians reacting to one another in a very creative fashion. This was a very good album, one in which, the musicians take their influences and internalize them, and then create their own music, stretching language of jazz in new and interesting ways.

Tracklist:

01 - Ding Dong
02 - Willisau Suite
03 - Schlappen
04 - Miniatür
05 - Kanon
06 - Towels
07 - In Drei
08 - Wake-Up Call
09 - 8915
10 - Schirm
11 - Another Pint
12 - Versteckter Kitsch
13 - Last Order

Produced by Silke Eberhard and Intakt Records, Patrik Landolt.
Recorded in January 2016 at Studio P4, Berlin. Engineered, Mixed & Mastered by Marco Birkner.

Musicians:
Silke Eberhard - alto saxophone, bass clarinet
Jan Roder - bass
Kay Lübke - drums

Analyzed: Silke Eberhard Trio / The Being Inn (feat. Jan Roder & Kay Lübke)
––––––––––––––––––––––––––––––––––––––––

DR Peak RMS Duration Track
––––––––––––––––––––––––––––––––––––––––
DR11 -0.10 dB -13.07 dB 5:10 01-Ding Dong
DR12 -0.10 dB -15.73 dB 18:12 02-Willisau Suite
DR13 -0.10 dB -16.90 dB 0:49 03-Schlappen
DR16 -0.10 dB -19.83 dB 4:13 04-Miniatür
DR14 -0.10 dB -16.45 dB 2:45 05-Kanon
DR11 -0.60 dB -15.35 dB 0:37 06-Towels
DR12 -0.10 dB -16.36 dB 3:36 07-In Drei
DR13 -0.10 dB -16.48 dB 0:35 08-Wake-Up Call
DR13 -0.10 dB -17.05 dB 4:41 09-8915
DR15 -0.10 dB -18.93 dB 4:00 10-Schirm
DR13 -0.10 dB -16.39 dB 0:35 11-Another Pint
DR14 -0.10 dB -16.99 dB 5:49 12-Versteckter Kitsch
DR14 -0.11 dB -20.52 dB 0:38 13-Last Order
––––––––––––––––––––––––––––––––––––––––

Number of tracks: 13
Official DR value: DR13

Samplerate: 44100 Hz
Channels: 2
Bits per sample: 24
Bitrate: 1315 kbps
Codec: FLAC
================================================================================


Thanks to the Original customer!