Simone and Her Hawaiian Jazz Band - Aroma Of Hawaii (2010) [Japan 2016] SACD ISO + Hi-Res FLAC

Posted By: HDAtall
Simone and Her Hawaiian Jazz Band - Aroma Of Hawaii (2010) [Japan 2016] SACD ISO + Hi-Res FLAC

Simone and Her Hawaiian Jazz Band - Aroma Of Hawaii (2010) [Japan 2016]
SACD Rip | SACD ISO | DSD64 2.0 > 1-bit/2.8224 MHz | 65:42 minutes | Front/Rear Covers | 2,2 GB
or FLAC(converted with foobar2000 to tracks) 24bit/88,2 kHz | Front/Rear Covers | 1,45 GB

Austrian singer Simone Kopmajer has consistently released charming and wonderful albums from the Japanese label Venus Records over the years, many of them musically directed by brilliant pianist/arranger John di Martino. They got together again for this collection of Hawaiian songs, interpreted from a jazz musicians' perspective and performed with superb musicianship.

Tracklist:

01. I'll Weave A Lei Of Stars For You
02. Hanalei Moon
03. I'll Remember You
04. The Hawaiian Wedding Song
05. Beyond The Reef
06. Sweet Leilani
07. Pagan Love Song
08. Blue Hawaii
09. Red Sails In The Sunset
10. To You Sweetheart, Aloha
11. Silhouette Hula
12. The Moon Of Manakoora
13. On A Tropic Night

Produced, Mixed & Mastered by Tetsuo Hara. Engineered by Katherine Miller.
Recorded on April 30 & May 1, 2010 at Avatar Studio in New York.
Venus Hyper Magnum Sound Direct Mix. VENUS Japan # VHGD-141.

Personnel
Simone Kopmajer - vocals
John Di Martino - piano
Aaron Heick - flutes
Paul Meyers - guitar
James Genus - bass
Alvin Atkinson - drums
Chembo Corniel - percussions

foobar2000 1.3.17 / Dynamic Range Meter 1.1.1

––––––––––––––––––––––––––––––––––––––––
Analyzed: SIMONE & HER HAWAIIAN JAZZ BAND / Aroma Of Hawaii
––––––––––––––––––––––––––––––––––––––––

DR Peak RMS Duration Track
––––––––––––––––––––––––––––––––––––––––
DR8 -4.55 dB -13.42 dB 4:46 01-I'll Weave A Lei Of Stars For You
DR8 -4.55 dB -13.39 dB 4:37 02-Hanalei Moon
DR7 -4.75 dB -12.77 dB 3:34 03-I'll Remember You
DR6 -5.15 dB -12.46 dB 5:25 04-The Hawaiian Wedding Song
DR6 -5.51 dB -12.35 dB 5:53 05-Beyond The Reef
DR6 -4.78 dB -12.84 dB 4:18 06-Sweet Leilani
DR5 -5.37 dB -12.63 dB 3:03 07-Pagan Love Song
DR6 -5.13 dB -12.58 dB 6:10 08-Blue Hawaii
DR7 -5.23 dB -13.06 dB 7:04 09-Red Sails In The Sunset
DR6 -5.02 dB -12.47 dB 6:11 10-To You Sweetheart, Aloha
DR7 -4.90 dB -12.53 dB 5:38 11-Silhouette Hula
DR6 -5.39 dB -12.93 dB 3:00 12-The Moon Of Manakoora
DR7 -4.42 dB -12.68 dB 6:02 13-On A Tropic Night
––––––––––––––––––––––––––––––––––––––––

Number of tracks: 13
Official DR value: DR7

Samplerate: 2822400 Hz / PCM Samplerate: 88200 Hz
Channels: 2
Bits per sample: 1
Bitrate: 5645 kbps
Codec: DSD64


Thanks to jazzyman!
Uncompressed SACD ISO size > 2,65 GB
>