Tags
Language
Tags

Smokey Robinson & The Miracles - What Love Has... Joined Together (1970/2016) [Official Digital Download 24-bit/192 kHz]

Posted By: HDV
Smokey Robinson & The Miracles - What Love Has... Joined Together (1970/2016) [Official Digital Download 24-bit/192 kHz]

Smokey Robinson & The Miracles - What Love Has…Joined Together (1970/2016)
FLAC (tracks) 24-bit/192 kHz | Time - 33:44 minutes | 1,27 GB
FLAC (tracks) 24-bit/96 kHz | Time - 33:44 minutes | 722 MB
Studio Master, Official Digital Download | Artwork: Front cover

This top 10 R&B concept album from Smokey Robinson & The Miracles contains nothing but covers of love songs by Burt Bacharach, Stevie Wonder, Marvin Gaye, the Beatles and others. Produced by Smokey Robinson, "What Love Has…Joined Together" was one of the most rare albums in the Motown catalogue, for years out of print and almost impossible to find.

A stunning concept album by Smokey Robinson & the Miracles that should have fared better. Notables wrote the six songs, all love ballads: Stevie Wonder, Marvin Gaye, Berry Gordy, Frank Wilson, Bacharach & David, Lennon & McCartney, and Smokey himself. Every selection is a wedding song, and Smokey caresses the lyrics like they were newborns. The heavenly harmonies of the Miracles – Ronald White, Bobby Rogers, Pete Moore, and Claudette Robinson – touch the soul. When they sing Brenda Holloway's "You Made Me So Very Happy," you don't just hear the words; for five minutes and four seconds you experience what lovers feel. The harmonies on "What Love Has…" are overwhelming, almost overkill. Smokey drenches more soul onto Marvin Gaye's "If This World Was Mine" then the master himself. The lush arrangements by Smokey and Jerry Long will make you dizzy.

Tracklist:

01 - What Love Has Joined Together
02 - My Cherie Amour
03 - If This World Were Mine
04 - You've Made Me So Very Happy
05 - This Guy's In Love With You
06 - And I Love Her
07 - (You've Got Me) Looking Through The Eyes Of Love
08 - Paper People

Produced by Smokey Robinson.
Recorded at Hitsville USA, Detroit.
Digitally Remastered.

Musicians:
Smokey Robinson - lead vocals
Claudette Robinson - lead vocals, background vocals
Bobby Rogers - background vocals
Pete Moore - background vocals
Ronnie White - background vocals
Marv Tarplin - guitar
+ The Funk Brothers - other instrumentation

Analyzed: Smokey Robinson & The Miracles / What Love Has…Joined Together
––––––––––––––––––––––––––––––––––––––––

DR Peak RMS Duration Track
––––––––––––––––––––––––––––––––––––––––
DR11 0.00 dB -12.44 dB 5:54 01-What Love Has Joined Together
DR11 0.00 dB -13.37 dB 4:19 02-My Cherie Amour
DR9 0.00 dB -11.35 dB 4:32 03-If This World Were Mine
DR9 0.00 dB -10.49 dB 5:07 04-You've Made Me So Very Happy
DR10 0.00 dB -12.65 dB 5:22 05-This Guy's In Love With You
DR9 0.00 dB -11.55 dB 2:41 06-And I Love Her
DR9 0.00 dB -10.29 dB 3:16 07-(You've Got Me) Looking Through The Eyes Of Love
DR10 0.00 dB -11.31 dB 2:33 08-Paper People
––––––––––––––––––––––––––––––––––––––––

Number of tracks: 8
Official DR value: DR10

Samplerate: 192000 Hz
Channels: 2
Bits per sample: 24
Bitrate: 5239 kbps
Codec: FLAC
================================================================================


Thanks to the Original customer!