Subcategories

Snarky Puppy - Family Dinner, Volume 2 {Deluxe Edition} (2016) [Official Digital Download]

Posted By: HDV
Snarky Puppy - Family Dinner, Volume 2 {Deluxe Edition} (2016) [Official Digital Download]

Snarky Puppy - Family Dinner, Volume Two (2016) [Deluxe Edition]
FLAC (tracks) 24-bit/48 kHz | Time - 87:15 minutes | 1,09 GB
Studio Master, Official Digital Download | Artwork: Front cover

In February of 2015, Grammy Award-winning band Snarky Puppy recorded Family Dinner Volume Two in front of a live studio audience with guest instrumentalists and vocalists from all over the world. The project is a true testament for showing first-hand how music can be a bridge between diverse cultures from countries from all over the world to create a unifying musical statement for the average listener or the devout music-connoisseur.

Texas collective Snarky Puppy are more cult than band. Every member has a day job – generally with some big shot pop star – but they save their best for these large ensemble gatherings when “the family” meets and the trademark Snarky grooves go down.

The Family Dinner idea involves luring unsuspecting collaborators into the Puppy den, recording (and filming) the results live. Since Volume One produced a Grammy-winning performance from Lalah Hathaway, one imagines the Puppy’s founder, bassist Michael Leagues, is finding the guests a little easier to book these days. On Volume Two, grandees like David Crosby, Salif Keita and Susana Baca rub shoulders with rising stars like folk-jazz vocalist Becca Stevens and the soon-to-be-massive prodigy Jacob Collier.

Tracklist:

01 - I Asked (feat. Becca Stevens & Väsen)
02 - Molino Molero (feat. Susana Baca & Charlie Hunter)
03 - Liquid Love (feat. Chris Turner)
04 - Soro (Afriki) (feat. Salif Keita & Carlos Malta & Bernardo Aguiar)
05 - Sing To The Moon (feat. Laura Mvula & Michelle Willis)
06 - Don't You Know (feat. Jacob Collier & Big Ed Lee)
07 - I Remember (feat. Knower & Jeff Coffin)
08 - Somebody Home (feat. David Crosby)
09 - Be Still (feat. Becca Stevens & Väsen)
10 - Fuego Y Agua (feat. Susana Baca)
11 - Shapons Vindaloo (feat. Väsen)
12 - One Hope (feat. Knower)
13 - Brother, I'm Hungry (Feat. Nigel Hall & Nola International)

Analyzed: Snarky Puppy / Family Dinner Volume Two (Deluxe)
––––––––––––––––––––––––––––––––––––––––

DR Peak RMS Duration Track
––––––––––––––––––––––––––––––––––––––––
DR10 -0.15 dB -15.55 dB 6:54 01-I Asked (feat. Becca Stevens & Väsen)
DR11 -0.15 dB -14.42 dB 5:30 02-Molino Molero (feat. Susana Baca & Charlie Hunter)
DR8 -0.15 dB -11.32 dB 6:36 03-Liquid Love (feat. Chris Turner)
DR8 -0.15 dB -10.90 dB 8:17 04-Soro (Afriki) (feat. Salif Keita & Carlos Malta & Bernardo Aguiar)
DR10 -0.15 dB -13.64 dB 5:51 05-Sing To The Moon (feat. Laura Mvula & Michelle Willis)
DR10 -0.30 dB -13.70 dB 10:44 06-Don't You Know (feat. Jacob Collier & Big Ed Lee)
DR10 -0.14 dB -12.38 dB 6:34 07-I Remember (feat. Knower & Jeff Coffin)
DR11 -0.15 dB -15.78 dB 6:30 08-Somebody Home (feat. David Crosby)
DR10 -0.30 dB -12.54 dB 4:33 09-Be Still (feat. Becca Stevens & Väsen)
DR10 -0.30 dB -12.27 dB 5:36 10-Fuego Y Agua (feat. Susana Baca)
DR9 -0.30 dB -12.60 dB 8:04 11-Shapons Vindaloo (feat. Väsen)
DR7 -0.30 dB -8.53 dB 3:31 12-One Hope (feat. Knower)
DR9 -0.30 dB -11.54 dB 8:36 13-Brother, I'm Hungry (Feat. Nigel Hall & Nola International)
––––––––––––––––––––––––––––––––––––––––

Number of tracks: 13
Official DR value: DR9

Samplerate: 48000 Hz
Channels: 2
Bits per sample: 24
Bitrate: 1809 kbps
Codec: FLAC
================================================================================


Thanks to the Original customer!