Snarky Puppy - Live at the Royal Albert Hall (Vinyl) (2020) [24bit/96kHz]

Posted By: delpotro
Snarky Puppy - Live at the Royal Albert Hall (Vinyl) (2020) [24bit/96kHz]

Snarky Puppy - Live at the Royal Albert Hall (Vinyl) (2020)
Vinyl Rip | FLAC (tracks) 24-bit/96 kHz | Time - 99:29 minutes | 2 GB | Artwork - 42 MB
Jazz-Funk, Jazz Fusion | Label: GroundUP Music

In 2012, Snarky Puppy booked their first European tour through Facebook posts, begging people to help find a bar they could play in. Years later, on November 14th, 2019, Snarky Puppy recorded their sold-out show from the iconic Royal Albert Hall in London, which will be their first official live release in almost 4 years. Featuring an extended line-up of 15 out of their 18 regular members, the record includes many tracks from their recent studio album, "Immigrance." "Live at the Royal Albert Hall" captures an interesting mix of new and old songs, illustrating their musical and artistic progression over the years.

Tracklist:
A1 – Even Us (08:12)
A2 – Intelligent Design (09:17)
B1 – While We’re Young (07:33)
B2 – Alma (08:36)
C1 – Bad Kids To The Back (08:21)
C2 – Bigly Strictness (08:21)
D1 – Tarova (06:15)
D2 – Xavi (09:32)
E1 – Chonks (09:14)
E2 – Sleeper (11:45)
F1 – Shofukan (12:07)

foobar2000 1.4.1 / Dynamic Range Meter 1.1.1
log date: 2021-01-12 13:25:14

––––––––––––––––––––––––––––––––––––––––
Analyzed: Snarky Puppy / Live At The Royal Albert Hall
––––––––––––––––––––––––––––––––––––––––

DR Peak RMS Duration Track
––––––––––––––––––––––––––––––––––––––––
DR13 -1.33 dB -18.02 dB 8:12 A1-Even Us
DR13 -1.42 dB -16.82 dB 9:17 A2-Intelligent Design
DR14 -0.35 dB -17.29 dB 7:34 B1-While We’re Young
DR14 -0.64 dB -17.36 dB 8:36 B2-Alma
DR14 -0.89 dB -18.04 dB 8:24 C1-Bad Kids To The Back
DR15 -0.50 dB -17.05 dB 8:22 C2-Bigly Strictness
DR14 -0.66 dB -18.38 dB 6:19 D1-Tarova
DR13 -2.02 dB -16.97 dB 9:32 D2-Xavi
DR13 -1.20 dB -17.13 dB 9:14 E1-Chonks
DR13 -1.87 dB -18.61 dB 11:45 E2-Sleeper
DR14 -0.83 dB -18.07 dB 12:15 F1-Shofukan
––––––––––––––––––––––––––––––––––––––––

Number of tracks: 11
Official DR value: DR14

Samplerate: 96000 Hz
Channels: 2
Bits per sample: 24
Bitrate: 2934 kbps
Codec: FLAC
================================================================================


Lineage:

Rega P10 Turntable with Rega P10 PSU > Virgin Vinyl > Rega Apheta 3 Cartridge > PS Audio NuWave Phono Converter ADC > AudioQuest Carbon USB Cable > USB-IN > Audition CC 2019 @ 24bit float, 192kHz capture.


Processing:

24bit wav > Run through Click Repair 3.9.9 at 10/0 on DeClick > Volume Boost +4.93/5.3/5/3.85/4.5/4.55 DB > Remove DC Bias > Saved as 24bit,96kHz WAV > FLAC > Tagged with Discogs tagger through Foobar.

Scans:

Epson Expression 11000XL -> 16bit 600 DPI with Unsharp Mask -> Color Correction in Photoshop CC 2019 x64 -> 8bit 600DPI PNG.

Thanks to the Original customer!