Sonny Clark - Cool Struttin'(1958/2017) [Official Digital Download 24bit/192kHz]

Posted By: HDV
Sonny Clark - Cool Struttin'(1958/2017) [Official Digital Download 24bit/192kHz]

Sonny Clark - Cool Struttin' +2 (1958/2017)
FLAC (tracks) 24 bit/192 kHz | Time - 53:45 minutes | 2,26 GB
FLAC (tracks) 24 bit/96 kHz | Time - 53:45 minutes | 1,26 GB
Studio Stereo Master, Official Digital Download | Artwork: Front cover

"With the single exception of Kind of Blue, Sonny Clark's Cool Struttin' is almost certainly the coolest jazz album of all time" — 100 Greatest Jazz Albums.

Recorded in 1958, this legendary date with the still-undersung Sonny Clark in the leader's chair also featured a young Jackie McLean on alto (playing with a smoother tone than he had before or ever did again), trumpeter Art Farmer, and the legendary rhythm section of bassist Paul Chambers and drummer Philly Joe Jones, both from the Miles Davis band. The set begins with one of the preeminent "swinging medium blues" pieces in jazz history: the title track with its leveraged fours and eights shoved smoothly up against the walking bass of Chambers and the backbeat shuffle of Jones. Clark's solo, with its grouped fifths and sevenths, is a wonder of both understatement and groove, while Chambers' arco solo turns the blues in on itself. While there isn't a weak note on this record, there are some other tracks that stand out, most notably Miles' "Sippin' at Bells," with its loping Latin rhythm. When McLean takes his solo against a handful of Clark's shaded minor chords, he sounds as if he may blow it – he comes out a little quick – but he recovers nicely and reaches for a handful of Broadway show tunes to counter the minor mood of the piece. He shifts to both Ben Webster and Lester Young before moving through Bird, and finally to McLean himself, riding the margin of the changes to slip just outside enough to add some depth in the middle register. The LP closes with Henderson and Vallée's "Deep Night," the only number in the batch not rooted in the blues. It's a classic hard bop jamming tune and features wonderful solos by Farmer, who plays weird flatted notes all over the horn against the changes, and McLean, who thinks he's playing a kind of snake charmer blues in swing tune. This set deserves its reputation for its soul appeal alone.

Tracklist:

01 - Cool Struttin'
02 - Blue Minor
03 - Sippin' At Bells
04 - Deep Night
05 - Royal Flush
06 - Lover

Produced by Alfred Lion. Engineered by Rudy Van Gelder.
Recorded on January 5, 1958 at Van Gelder Studio, Hackensack, NJ.

Musicians:
Sonny Clark - piano
Jackie McLean - alto saxophone
Art Farmer - trumpet
Paul Chambers - bass
Philly Joe Jones - drums

'Masterworks' release. Stereo.
Universal Music Japan, LLC.

Analyzed: Sonny Clark / クール・ストラッティン +2 (The Masterworks)
––––––––––––––––––––––––––––––––––––––––

DR Peak RMS Duration Track
––––––––––––––––––––––––––––––––––––––––
DR16 -0.19 dB -20.33 dB 9:24 01-Cool Struttin'
DR16 -0.69 dB -19.19 dB 10:21 02-Blue Minor
DR15 -1.69 dB -20.02 dB 8:19 03-Sippin' At Bells
DR15 -0.62 dB -19.71 dB 9:36 04-Deep Night
DR15 0.00 dB -18.22 dB 9:03 05-Royal Flush
DR14 0.00 dB -16.60 dB 7:02 06-Lover
––––––––––––––––––––––––––––––––––––––––

Number of tracks: 6
Official DR value: DR15

Samplerate: 192000 Hz
Channels: 2
Bits per sample: 24
Bitrate: 5622 kbps
Codec: FLAC
================================================================================


Thanks to the Original customer!