Sonny Clark - Cool Struttin' (1958/2014) MONO [Official Digital Download 24bit/192kHz]

Posted By: HDV
Sonny Clark - Cool Struttin' (1958/2014) MONO [Official Digital Download 24bit/192kHz]

Sonny Clark - Cool Struttin' (1958/2014) [MONO]
FLAC (tracks) 24 bit/192 kHz | Time - 37:23 minutes | 1,6 GB
FLAC (tracks) 24 bit/96 kHz | Time - 37:23 minutes | 715 MB
Studio Mono Master, Official Digital Download | Artwork: Front cover

Pianist Sonny Clark reached the peak of his short career with 1958's “Cool Struttin'” but each date he led on Blue Note is now considered a classic. Though commercial success always eluded him, he was in demand as a sideman and played dozens of dates, including Tina Brooks's "Minor Move". Luckily, Clark's contribution is well documented on record; he has achieved far more critical, musical, and popular acclaim than he ever did in life. On this recording Clark is joined by Jackie McLean on alto saxophone, Art Farmer on trumpet, Paul Chambers on bass and Philly Joe Jones on drums.

Recorded in 1958, this legendary date with the still-undersung Sonny Clark in the leader's chair also featured a young Jackie McLean on alto (playing with a smoother tone than he had before or ever did again), trumpeter Art Farmer, and the legendary rhythm section of bassist Paul Chambers and drummer Philly Joe Jones, both from the Miles Davis band. The set begins with one of the preeminent "swinging medium blues" pieces in jazz history: the title track with its leveraged fours and eights shoved smoothly up against the walking bass of Chambers and the backbeat shuffle of Jones. Clark's solo, with its grouped fifths and sevenths, is a wonder of both understatement and groove, while Chambers' arco solo turns the blues in on itself. While there isn't a weak note on this record, there are some other tracks that stand out, most notably Miles' "Sippin' at Bells," with its loping Latin rhythm. When McLean takes his solo against a handful of Clark's shaded minor chords, he sounds as if he may blow it – he comes out a little quick – but he recovers nicely and reaches for a handful of Broadway show tunes to counter the minor mood of the piece. He shifts to both Ben Webster and Lester Young before moving through Bird, and finally to McLean himself, riding the margin of the changes to slip just outside enough to add some depth in the middle register. The LP closes with Henderson and Vallée's "Deep Night," the only number in the batch not rooted in the blues. It's a classic hard bop jamming tune and features wonderful solos by Farmer, who plays weird flatted notes all over the horn against the changes, and McLean, who thinks he's playing a kind of snake charmer blues in swing tune. This set deserves its reputation for its soul appeal alone.

Tracklist:

01 - Cool Struttin'
02 - Blue Minor
03 - Sippin' At Bells
04 - Deep Night

Produced by Alfred Lion. Engineered by Rudy Van Gelder.
Recorded on January 5, 1958 at Van Gelder Studio, Hackensack, NJ.

Musicians:
Sonny Clark - piano
Jackie McLean - alto saxophone
Art Farmer - trumpet
Paul Chambers - bass
Philly Joe Jones - drums

Analyzed: Sonny Clark / Cool Struttin' (Mono)
––––––––––––––––––––––––––––––––––––––––

DR Peak RMS Duration Track
––––––––––––––––––––––––––––––––––––––––
DR14 -0.33 dB -16.19 dB 9:20 01-Cool Struttin'
DR11 -0.90 dB -14.32 dB 10:17 02-Blue Minor
DR13 -0.26 dB -15.43 dB 8:16 03-Sippin' At Bells
DR12 -0.82 dB -15.37 dB 9:30 04-Deep Night
––––––––––––––––––––––––––––––––––––––––

Number of tracks: 4
Official DR value: DR13

Samplerate: 192000 Hz
Channels: 2
Bits per sample: 24
Bitrate: 5783 kbps
Codec: FLAC
================================================================================


Thanks to the Original customer!