St. Petersburg Academic SO, Alexander Dmitriev - Svetlanov & Skryabin (2005) PS3 ISO + Hi-Res FLAC

Posted By: HDAtall
St. Petersburg Academic SO, Alexander Dmitriev - Svetlanov & Skryabin (2005) PS3 ISO + Hi-Res FLAC

St. Petersburg Academic SO, Alexander Dmitriev - Svetlanov & Skryabin (2005)
PS3 ISO | DSD64 2.0 > 1-bit/2.8224 MHz | 63:05 minutes | Full Scans included | 1,84 GB
or FLAC(converted with foobar2000 to tracks) 24bit/88,2 kHz | Scans included | 1,29 GB
Water Lily Acoustic # WLA-WS-75-SACD | a Pure DSD Recording

A virtuoso vehicle in the tradition of Liszt and Rakhmaninov, Svetlanov’s emotionally full-blooded concerto provides the ultimate showcase for internationally renowned pianist Vladimir Ovchinnikov, who has enjoyed a meteoric career since his ground-breaking success in the 1982 Moscow Tchaikovsky Piano Competition. Alternating scintillating showmanship and genuine depth of feeling, this gorgeously seductive work is sure to delight seasoned concertgoers and newcomers alike. The richness and warmth of the Romantic tradition continues in Skryabin’s lush and dramatic Third Symphony, which links the emotionally extrovert world of Tchaikovsky to the renewed sense of spirituality essential to our time. A sonic and musical spectacular in every sense, Maestro Dmitriev and the St Petersburg Symphony wring every last ounce of passion and excitement from these thrilling scores.

Tracklist:

01. Yevgeny Svetlanov Piano Concerto in C minor: I. Andante
02. Yevgeny Svetlanov Piano Concerto in C minor: II. Allegro
03. Yevgeny Svetlanov: A minor Prelude
04. Alexander Skryabin Symphony No. 3: I. Luttes (Struggle). Lento - Allegro
05. Alexander Skryabin Symphony No. 3: II. Voluptés (Delights). Lento
06. Alexander Skryabin Symphony No. 3: III. Jeu divin (Divine Play). Allegro

Produced and Recorded by Alexander Kavichandran
Recorded in September 2003, in the Great Hall of the Saint Petersburg Philharmonia, Russia
Mastering: Dawn Frank and Gus Skinas at Super Audio Center, Boulder, CO, U.S.A.

Saint Petersburg Academic Symphony Orchestra, Conducted by Alexander Dmitriev
Vladimir Ovchinnikov - piano

This is a pure DSD recording done with a single pair of microphones arranged in a parallel figure-eight configuration. No noise reduction, equalization, compression or limiting of any sort was used in the making of this recording.
foobar2000 1.3.14 / Dynamic Range Meter 1.1.1

––––––––––––––––––––––––––––––––––––––––
Analyzed: St Petersburg Academic Symphony Orchestra, Alexander Dmitriev, conductor / Yevgeny Svetlanov/Alexander Skryabin
––––––––––––––––––––––––––––––––––––––––

DR Peak RMS Duration Track
––––––––––––––––––––––––––––––––––––––––
DR16 -6.24 dB -31.12 dB 8:08 01-Yevgeny Svetlanov Piano Concerto in C minor I. Andante
DR17 -4.35 dB -28.95 dB 12:34 02-II. Allegro
DR20 -13.91 dB -42.07 dB 2:24 03-Yevgeny Svetlanov A minor Prelude
DR15 -6.74 dB -29.03 dB 20:12 04-Alexander Skryabin Symphony No. 3 'Le poиme divin' (The Divine Poem) I. Luttes (Struggle). Lento - Allegro
DR13 -12.30 dB -31.63 dB 10:46 05-II. Voluptйs (Delights). Lento
DR14 -7.70 dB -26.35 dB 9:02 06-III. Jeu divin (Divine Play). Allegro
––––––––––––––––––––––––––––––––––––––––

Number of tracks: 6
Official DR value: DR16

Samplerate: 2822400 Hz / PCM Samplerate: 88200 Hz
Channels: 2
Bits per sample: 1
Bitrate: 5645 kbps
Codec: DSD64


Thanks to ManWhoCan!
Uncompressed SACD ISO size > 2,53 GB
>