The Stan Getz Quartet - Pure Getz (1982) [Reissue 2003] MCH PS3 ISO + DSD64 + Hi-Res FLAC

Posted By: HDAtall
The Stan Getz Quartet - Pure Getz (1982) [Reissue 2003] MCH PS3 ISO + DSD64 + Hi-Res FLAC

The Stan Getz Quartet - Pure Getz (1982) [Reissue 2003]
PS3 Rip | SACD ISO | DST64 2.0 & 5.1 > 1-bit/2.8224 MHz | 47:27 minutes | Scans included | 2,95 GB
or DSD64 2.0 Stereo (from SACD-ISO to Tracks.dsf) > 1-bit/2.8224 MHz | Full Scans included | 1,2 GB
or FLAC 2.0 (carefully converted & encoded to tracks) 24bit/96 kHz | Full Scans included | 1,06 GB
Features Stereo and Multichannel Surround Sound | Concord Jazz # SACD-1000-6

This enduring Stan Getz recording beautifully reveals the essence of one of jazz's eternal tenor saxophone masters. His inimitable melodicism, fluid virtuosity, seemingly infinite inventiveness and heartfelt lyricism are pure genius—or, quite simply, Pure Getz. The remarkable clarity and realism of this special SACD release virtually puts the listener right in the recording studio with Getz and his quartet.

Stan Getz's 1982 band featured the harmonically advanced pianist Jim McNeely, bassist Marc Johnson and drummer Victor Lewis; Billy Hart fills in for Lewis on three numbers. This date sticks (with one exception) to high-quality jazz standards, some of which ("Sippin at Bell's") are not performed all that often. Getz is particularly swinging on "Tempus Fugit" and quite lyrical on Billy Strayhorn's "Blood Count".

Tracklist:

01. On the Up and Up
02. Blood Count
03. Very Early
04. Sipping at Bell's
05. I Wish I Knew
06. Come Rain or Come Shine
07. Tempus Fugit

Personnel
Stan Getz - tenor saxophone
Jim McNeely - piano
Marc Johnson - bass
Billy Hart - drums on "3, 5 & 6"
Victor Lewis - drums on "1, 2, 4 & 7"

Recorded at Coast Recorders, San Francisco, CA on January 29, 1982 (tracks 1, 2, 4 & 7)
and Soundmixers, New York City on February 5, 1982 (tracks 3, 5 & 6)

foobar2000 1.6.6 / Dynamic Range Meter 1.1.1

––––––––––––––––––––––––––––––––––––––––
Analyzed: The Stan Getz Quartet / Pure Getz
––––––––––––––––––––––––––––––––––––––––

DR Peak RMS Duration Track
––––––––––––––––––––––––––––––––––––––––
DR14 -8.53 dB -29.79 dB 8:13 01-On the Up and Up
DR13 -10.13 dB -30.56 dB 3:36 02-Blood Count
DR14 -9.61 dB -30.04 dB 7:08 03-Very Early
DR15 -5.21 dB -29.99 dB 5:05 04-Sipping at Bell's
DR14 -8.10 dB -29.60 dB 7:54 05-I Wish I Knew
DR14 -9.77 dB -30.33 dB 8:10 06-Come Rain or Come Shine
DR14 -6.10 dB -29.24 dB 7:20 07-Tempus Fugit
––––––––––––––––––––––––––––––––––––––––

Number of tracks: 7
Official DR value: DR14

Samplerate: 2822400 Hz / PCM Samplerate: 176400 Hz
Channels: 6
Bits per sample: 1
Bitrate: 16934 kbps
Codec: DST64
================================================================================

––––––––––––––––––––––––––––––––––––––––
Analyzed: The Stan Getz Quartet / Pure Getz
––––––––––––––––––––––––––––––––––––––––

DR Peak RMS Duration Track
––––––––––––––––––––––––––––––––––––––––
DR13 -6.36 dB -22.17 dB 8:13 01-On the Up and Up
DR12 -8.12 dB -23.71 dB 3:36 02-Blood Count
DR13 -8.30 dB -23.96 dB 7:08 03-Very Early
DR14 -7.11 dB -24.98 dB 5:05 04-Sipping at Bell's
DR14 -7.42 dB -23.48 dB 7:54 05-I Wish I Knew
DR13 -7.85 dB -23.96 dB 8:10 06-Come Rain or Come Shine
DR14 -6.32 dB -22.72 dB 7:21 07-Tempus Fugit
––––––––––––––––––––––––––––––––––––––––

Number of tracks: 7
Official DR value: DR13

Samplerate: 2822400 Hz / PCM Samplerate: 176400 Hz
Channels: 2
Bits per sample: 1
Bitrate: 5645 kbps
Codec: DST64


Thanks to the Original ripper!
Uncompressed SACD ISO size > 2,8 GB
>