Steely Dan - Gaucho (1980) [Reissue 2003] {2.0 & 5.1} PS3 ISO + FLAC / RE-UP

Posted By: HDAtall
Steely Dan - Gaucho (1980) [Reissue 2003] {2.0 & 5.1} PS3 ISO + FLAC / RE-UP

Steely Dan - Gaucho (1980) [Reissue 2003] {2.0 & 5.1}
PS3 Rip | SACD ISO | DST64 2.0 & 5.1 > 1-bit/2.8224 MHz | 37:44 minutes | Full Scans included | 2,47 GB
or FLAC 2.0 Stereo (converted with foobar2000 to tracks) 24bit/88,2 kHz | 38:03 min | Scans included | 799 MB
Features 2.0 Stereo and 5.1 multichannel surround sound

Aja was cool, relaxed, and controlled; it sounded deceptively easy. Its follow-up, Gaucho, while sonically similar, is its polar opposite: a precise and studied record, where all of the seams show. Gaucho essentially replicates the smooth jazz-pop of Aja, but with none of that record's dark, seductive romance or elegant aura. Instead, it's meticulous and exacting; each performance has been rehearsed so many times that it no longer has any emotional resonance. Furthermore, Walter Becker and Donald Fagen's songs are generally labored, only occasionally reaching their past heights, like on the suave "Babylon Sisters," "Time Out of Mind," and "Hey Nineteen." Still, those three songs are barely enough to make the remainder of the album's glossy, meandering fusion worthwhile.

Tracklist:

01. Babylon Sisters
02 . Hey Nineteen
03. Glamour Profession
04. Gaucho
05. Time Out Of Mind
06. My Rival
07. Third World Man

foobar2000 1.1.18 / Dynamic Range Meter 1.1.1

––––––––––––––––––––––––––––––––––––––––
Analyzed: Steely Dan / Gaucho
––––––––––––––––––––––––––––––––––––––––

DR Peak RMS Duration Track
––––––––––––––––––––––––––––––––––––––––
DR17 -3.15 dB -24.66 dB 5:48 01-Babylon Sisters
DR14 -2.66 dB -22.59 dB 5:05 02-Hey Nineteen
DR15 -3.17 dB -22.89 dB 7:27 03-Glamour Profession
DR15 -2.58 dB -21.73 dB 5:30 04-Gaucho
DR15 -2.59 dB -22.36 dB 4:12 05-Time Out Of Mind
DR16 -2.64 dB -22.52 dB 4:30 06-My Rival
DR15 -2.56 dB -22.72 dB 5:13 07-Third World Man
––––––––––––––––––––––––––––––––––––––––

Number of tracks: 7
Official DR value: DR15

Samplerate: 2822400 Hz / PCM Samplerate: 88200 Hz
Channels: 6
Bits per sample: 24
Bitrate: 16934 kbps
Codec: DST64
================================================================================

––––––––––––––––––––––––––––––––––––––––
Analyzed: Steely Dan / Gaucho
––––––––––––––––––––––––––––––––––––––––

DR Peak RMS Duration Track
––––––––––––––––––––––––––––––––––––––––
DR10 -5.68 dB -18.26 dB 5:52 01-Babylon Sisters
DR11 -5.99 dB -18.57 dB 5:08 02-Hey Nineteen
DR9 -5.99 dB -16.87 dB 7:31 03-Glamour Profession
DR7 -6.00 dB -15.74 dB 5:32 04-Gaucho
DR9 -6.07 dB -17.99 dB 4:14 05-Time Out Of Mind
DR10 -5.98 dB -17.48 dB 4:32 06-My Rival
DR8 -5.99 dB -16.84 dB 5:14 07-Third World Man
––––––––––––––––––––––––––––––––––––––––

Number of tracks: 7
Official DR value: DR9

Samplerate: 2822400 Hz / PCM Samplerate: 88200 Hz
Channels: 2
Bits per sample: 24
Bitrate: 5645 kbps
Codec: DST64


Uncompressed SACD ISO size > 2,34GB
Thanks to PS³SACD!