The Steve Davis Project - Quality Of Silence (1999) PS3 ISO + Hi-Res FLAC

Posted By: HDAtall
The Steve Davis Project - Quality Of Silence (1999) PS3 ISO + Hi-Res FLAC

The Steve Davis Project - Quality Of Silence (1999)
PS3 Rip | SACD ISO | DSD64 2.0 > 1-bit/2.8224 MHz | 51:38 minutes | Scans included | 1,57 GB
or FLAC (converted with foobar2000 to tracks) 24bit/96 kHz | Full Scans included | 1,11 GB

Jazz drummer Steve Davis was born in Santa Barbara, California in 1958. Following the advice of drumset teacher Alan Dawson, Steve moved to New York City in the early 1980s to begin his career as a jazz drummer. Throughout the 1980s Steve built up a reputation in the New York scene, playing and recording with many big names.

Drummer Steve Davis has a keen ear that appreciates the sounds of silence as well as the sounds of music. “The power and beauty of a song is determined by the notes that you don’t play, as much as it is the notes you play,” Davis muses in the liners. Though an oft-touted goal, it’s one not generally made by drummers. Here, however, Davis really does “play” the silences thus living up to the promise of the project’s title. Indeed, it’s the charged negative spaces surrounding the notes as much as the notes themselves that keep resonating after the music has faded.

Here, Davis’ implosive minimalism is fleshed out by soprano saxist Tim Ries, guitarist John Hart, bassist Drew Gress and pianist Andy LaVerne. “Smoke Gets in Your Eyes” typifies the approach. Taken at a dizzyingly slow tempo, each pearl of Kern’s melodic strand stands alone, suspended against a black velvet void. Even when the tempo zooms, there’s still great clarity. Davis is a visionary, a master percussionist whose sticks and brushes paint rather than pound. Yes, Davis solos with elan (check out his pungent sketch at the end of “Blackbird”). This, however, is a project in which group interactions rather than soloistic stunting carry the day.

Tracklist:

01. The Quality of Your Silence
02. Bye Bye Blackbird
03. One Two Free
04. I Thought About You
05. Yesterdays
06. Infant Eyes
07. Free To Be Me
08. Smoke Gets In Your Eyes
09. I'm Old Fashioned
10. Freedom
11. A Cole Porter Flat

Personnel
Steve Davis - drums
Drew Gress - bass
John Hart - guitar
Andy LaVerne - piano
Tim Ries - saxophone

Pure DSD Recording.

foobar2000 1.5.4 / Dynamic Range Meter 1.1.1

––––––––––––––––––––––––––––––––––––––––
Analyzed: The Steve Davis Project / Quality of Silence
––––––––––––––––––––––––––––––––––––––––

DR Peak RMS Duration Track
––––––––––––––––––––––––––––––––––––––––
DR13 -7.92 dB -26.43 dB 4:34 01-The Quality of Your Silence
DR15 -5.24 dB -26.84 dB 5:28 02-Bye Bye Blackbird
DR18 -5.64 dB -29.64 dB 3:46 03-One Two Free
DR13 -10.98 dB -30.52 dB 4:30 04-I Thought About You
DR15 -6.68 dB -24.94 dB 4:21 05-Yesterdays
DR17 -7.41 dB -31.91 dB 6:13 06-Infant Eyes
DR18 -5.87 dB -28.70 dB 2:16 07-Free To Be Me
DR16 -12.15 dB -31.52 dB 6:21 08-Smoke Gets In Your Eyes
DR16 -8.09 dB -28.38 dB 5:48 09-I'm Old Fashioned
DR15 -7.98 dB -29.29 dB 3:13 10-Freedom
DR13 -7.94 dB -25.83 dB 5:08 11-A Cole Porter Flat
––––––––––––––––––––––––––––––––––––––––

Number of tracks: 11
Official DR value: DR15

Samplerate: 2822400 Hz / PCM Samplerate: 176400 Hz
Channels: 2
Bits per sample: 1
Bitrate: 5645 kbps
Codec: DSD64


Thanks to perception1111 & ManWhoCan!
Uncompressed SACD ISO size > 2,07 GB
>