Steven Wilson - 4 1/2 (2016) [Blu-Ray Pure Audio + Hi-Res FLAC]

Posted By: HDV
Steven Wilson - 4 1/2 (2016) [Blu-Ray Pure Audio + Hi-Res FLAC]

Steven Wilson - 4 ½ (2016) [Blu-Ray Audio]
Blu-Ray Audio | LPCM 2.0 & 5.1 / DTS-MA 5.1 24bit/96kHz | ~ 12,2 GB
FLAC STEREO (tracks) 24 bit/96 kHz | Time - 77:37 minutes | 1,55 GB

Four time Grammy nominee, multi instrumentalist and producer, Steven Wilson follows up on his acclaimed 'Hand.Cannot.Erase'. with the new interim album '4 ½'. Produced and mixed by Steven Wilson, '4 ½' features a stellar group of musicians contributing to the LP including Adam Holzman (keyboards), Nick Beggs (bass), Guthrie Govan (guitar), Dave Kilminster (guitar), Marco Minnemann (drums), Chad Wackerman (drums), Craig Blundell (drums), and Theo Travis. This Blu-Ray Pure Audio edition includes high res stereo, a 5.1 mix of the album, plus 6 bonus instrumentals and alternative mixes including a 5.1 mix of the 2015 version of Lazarus.

Steven Wilson's 4½ is a six-track stopgap mini album between 2015's Hand. Cannot. Erase. and whatever full-length comes next. Four tunes have origins in the previous album's sessions; another dates back to those from 2013's The Raven That Refused to Sing and Other Stories. There is also a re-recording of "Don't Hate Me" that first appeared on Porcupine Tree's 1998 offering, Stupid Dream. The players are by now familiar: Wilson's current working band comprises Guthrie Govan, Adam Holzman, Nick Beggs, Dave Kilminster, Craig Blundell, Marco Minnemann, Chad Wackerman, and Theo Travis. Opener "My Book of Regrets" is a nine-plus-minute exercise that commences with a seductive pop melody, and offers a hooky chorus and syncopated dynamics. It evolves into spiraling prog rock courtesy of Beggs' front-line Chris Squire-esque bassline, fueling Govan and Wilson's spiky (yet sharply contrasting) guitar breaks and Holzman's atmospheric synth and electric piano work. "Happiness III" clocks in at less that five minutes and is almost a straight-up rocker with an anthemic, lushly layered backing chorus and charging guitar vamps. Half these cuts are instrumentals. While "Year of the Plague" comes off as a merely pleasant soundtrack-esque interlude, "Sunday Rain Sets In" starts as a Pink Floyd-ish exercise in serial atmospheres, but Holzman's post-bop piano, followed by angular, aggressive electric guitar pathos – worthy of King Crimson – at the close, transforms it into something more satisfying. "Vermillioncore" is even more diverse: it moves through everything from funky jazz-rock noir to knotty, searing prog metal in just over five minutes. The closing redo of "Don't Hate Me" – even longer than PT's – is denser and covers more ground musically. Ninet Tayeb's passionate duet vocal adds cinematic drama as well as emotional resonance; a blazing Travis tenor solo (instead of the lilting flute on the original) inspires the rhythm section to fire on all cylinders. Minimal Eastern modalism claims the center of the mix before it sets the stage for a rockist climax. As an entry in Wilson's catalog, 4½ comes off as a fully considered EP, although leaving off "Year of the Plague" would have made it stronger. His obsessive attention to detail is everywhere in the production, but more than that, most of this provides fans with another fantastic showcase for his amazing band, excellent writing, and fine arranging.

Tracklist:

01 - My Book Of Regrets
02 - Year Of The Plague
03 - Happiness III
04 - Sunday Rain Sets In
05 - Vermillioncore
06 - Don't Hate Me
07 - Lazarus (2015 Recording)
08 - My Book Of Regrets [Edit]
09 - Don't Hate Me [SW vocal version]
10 - My Book Of Regrets [Instrumental]
11 - Happiness III [Instrumental]
12 - Don't Hate Me [Instrumental]

ATTENTION: Tracks "8-12" presented in Stereo only.

DISC INFO:

Disc Title: Steven Wilson - 4,5 (2016) [Blu-Ray Audio]
Disc Size: 15 929 828 442 bytes
Protection: AACS
BD-Java: No
BDInfo: 0.5.8

PLAYLIST REPORT:

Name: 00003.MPLS
Length: 0:36:54.295 (h:m:s.ms)
Size: 0 bytes
Total Bitrate: 0,00 Mbps

VIDEO:

Codec Bitrate Description
––- –––- –––––-
MPEG-4 AVC Video 0 kbps 1080p / 23,976 fps / 16:9 / High Profile 4.1

AUDIO:

Codec Language Bitrate Description
––- –––– –––- –––––-
LPCM Audio English 4608 kbps 2.0 / 96 kHz / 4608 kbps / 24-bit
LPCM Audio English 4608 kbps 2.0 / 96 kHz / 4608 kbps / 24-bit
LPCM Audio English 4608 kbps 2.0 / 96 kHz / 4608 kbps / 24-bit

FILES:

Name Time In Length Size Total Bitrate
–– –––- ––– –– ––––––-
00003.M2TS 0:00:00.000 0:36:53.294 0 0
00006.M2TS 0:36:53.294 0:00:01.000 0 0

CHAPTERS:

Number Time In Length Avg Video Rate Max 1-Sec Rate Max 1-Sec Time Max 5-Sec Rate Max 5-Sec Time Max 10Sec Rate Max 10Sec Time Avg Frame Size Max Frame Size Max Frame Time
––– –––- ––– ––––––– ––––––– ––––––– ––––––– ––––––– ––––––– ––––––– ––––––– ––––––– –––––––
1 0:00:00.000 0:03:34.672 0 kbps 0 kbps 00:00:00.000 0 kbps 00:00:00.000 0 kbps 00:00:00.000 0 bytes 0 bytes 00:00:00.000
2 0:03:34.672 0:09:34.782 0 kbps 0 kbps 00:00:00.000 0 kbps 00:00:00.000 0 kbps 00:00:00.000 0 bytes 0 bytes 00:00:00.000
3 0:13:09.455 0:09:35.992 0 kbps 0 kbps 00:00:00.000 0 kbps 00:00:00.000 0 kbps 00:00:00.000 0 bytes 0 bytes 00:00:00.000
4 0:22:45.447 0:04:32.522 0 kbps 0 kbps 00:00:00.000 0 kbps 00:00:00.000 0 kbps 00:00:00.000 0 bytes 0 bytes 00:00:00.000
5 0:27:17.969 0:09:35.324 0 kbps 0 kbps 00:00:00.000 0 kbps 00:00:00.000 0 kbps 00:00:00.000 0 bytes 0 bytes 00:00:00.000
6 0:36:53.294 0:00:01.000 0 kbps 0 kbps 00:00:00.000 0 kbps 00:00:00.000 0 kbps 00:00:00.000 0 bytes 0 bytes 00:00:00.000

STREAM DIAGNOSTICS:

File PID Type Codec Language Seconds Bitrate Bytes Packets
–– –- –– ––- –––– ––––––– ––––––– ––––––- ––-
00003.M2TS 4113 (0x1011) 0x1B AVC 0,042 0 0 0
00003.M2TS 4352 (0x1100) 0x80 LPCM eng (English) 0,042 0 0 0
00003.M2TS 4353 (0x1101) 0x80 LPCM eng (English) 0,042 0 0 0
00003.M2TS 4354 (0x1102) 0x80 LPCM eng (English) 0,042 0 0 0
00006.M2TS 4113 (0x1011) 0x1B AVC 0 0 0 0

<–– END FORUMS PASTE ––>

QUICK SUMMARY:

Disc Title: Steven Wilson - 4,5 (2016) [Blu-Ray Audio]
Disc Size: 15 929 828 442 bytes
Protection: AACS
BD-Java: No
Playlist: 00003.MPLS
Size: 0 bytes
Length: 0:36:54.295
Total Bitrate: 0,00 Mbps
Video: MPEG-4 AVC Video / 0 kbps / 1080p / 23,976 fps / 16:9 / High Profile 4.1
Audio: English / LPCM Audio / 2.0 / 96 kHz / 4608 kbps / 24-bit
Audio: English / LPCM Audio / 2.0 / 96 kHz / 4608 kbps / 24-bit
Audio: English / LPCM Audio / 2.0 / 96 kHz / 4608 kbps / 24-bit


********************
PLAYLIST: 00002.MPLS
********************

<–- BEGIN FORUMS PASTE –->

Total Video
Title Codec Length Movie Size Disc Size Bitrate Bitrate Main Audio Track Secondary Audio Track
––- ––– –––- ––––––– ––––––– –––- –––- ––––––––– ––––––––––-
00002.MPLS AVC 0:36:46 0 15 929 828 442 0,00 0,00 DTS-HD Master 5.1 (96kHz/24-bit) LPCM 5.1 13824Kbps (96kHz/24-bit)




DISC INFO:

Disc Title: Steven Wilson - 4,5 (2016) [Blu-Ray Audio]
Disc Size: 15 929 828 442 bytes
Protection: AACS
BD-Java: No
BDInfo: 0.5.8

PLAYLIST REPORT:

Name: 00002.MPLS
Length: 0:36:46.829 (h:m:s.ms)
Size: 0 bytes
Total Bitrate: 0,00 Mbps

VIDEO:

Codec Bitrate Description
––- –––- –––––-
MPEG-4 AVC Video 0 kbps 1080p / 23,976 fps / 16:9 / High Profile 4.1

AUDIO:

Codec Language Bitrate Description
––- –––– –––- –––––-
DTS-HD Master Audio English 0 kbps 5.1 / 96 kHz / 24-bit (DTS Core: 6.1 / 48 kHz / 1509 kbps / 24-bit)
LPCM Audio English 13824 kbps 5.1 / 96 kHz / 13824 kbps / 24-bit
LPCM Audio English 4608 kbps 2.0 / 96 kHz / 4608 kbps / 24-bit

FILES:

Name Time In Length Size Total Bitrate
–– –––- ––– –– ––––––-
00002.M2TS 0:00:00.000 0:36:45.828 0 0
00006.M2TS 0:36:45.828 0:00:01.000 0 0

CHAPTERS:

Number Time In Length Avg Video Rate Max 1-Sec Rate Max 1-Sec Time Max 5-Sec Rate Max 5-Sec Time Max 10Sec Rate Max 10Sec Time Avg Frame Size Max Frame Size Max Frame Time
––– –––- ––– ––––––– ––––––– ––––––– ––––––– ––––––– ––––––– ––––––– ––––––– ––––––– –––––––
1 0:00:00.000 0:09:23.938 0 kbps 0 kbps 00:00:00.000 0 kbps 00:00:00.000 0 kbps 00:00:00.000 0 bytes 0 bytes 00:00:00.000
2 0:09:23.938 0:04:15.672 0 kbps 0 kbps 00:00:00.000 0 kbps 00:00:00.000 0 kbps 00:00:00.000 0 bytes 0 bytes 00:00:00.000
3 0:13:39.610 0:04:31.604 0 kbps 0 kbps 00:00:00.000 0 kbps 00:00:00.000 0 kbps 00:00:00.000 0 bytes 0 bytes 00:00:00.000
4 0:18:11.215 0:03:49.520 0 kbps 0 kbps 00:00:00.000 0 kbps 00:00:00.000 0 kbps 00:00:00.000 0 bytes 0 bytes 00:00:00.000
5 0:22:00.736 0:05:10.685 0 kbps 0 kbps 00:00:00.000 0 kbps 00:00:00.000 0 kbps 00:00:00.000 0 bytes 0 bytes 00:00:00.000
6 0:27:11.421 0:09:34.407 0 kbps 0 kbps 00:00:00.000 0 kbps 00:00:00.000 0 kbps 00:00:00.000 0 bytes 0 bytes 00:00:00.000
7 0:36:45.828 0:00:01.001 0 kbps 0 kbps 00:00:00.000 0 kbps 00:00:00.000 0 kbps 00:00:00.000 0 bytes 0 bytes 00:00:00.000

STREAM DIAGNOSTICS:

File PID Type Codec Language Seconds Bitrate Bytes Packets
–– –- –– ––- –––– ––––––– ––––––– ––––––- ––-
00002.M2TS 4113 (0x1011) 0x1B AVC 0,042 0 0 0
00002.M2TS 4352 (0x1100) 0x86 DTS-HD MA eng (English) 0,042 0 0 0
00002.M2TS 4353 (0x1101) 0x80 LPCM eng (English) 0,042 0 0 0
00002.M2TS 4354 (0x1102) 0x80 LPCM eng (English) 0,042 0 0 0
00006.M2TS 4113 (0x1011) 0x1B AVC 0 0 0 0


<–– END FORUMS PASTE ––>

QUICK SUMMARY:

Disc Title: Steven Wilson - 4,5 (2016) [Blu-Ray Audio]
Disc Size: 15 929 828 442 bytes
Protection: AACS
BD-Java: No
Playlist: 00002.MPLS
Size: 0 bytes
Length: 0:36:46.829
Total Bitrate: 0,00 Mbps
Video: MPEG-4 AVC Video / 0 kbps / 1080p / 23,976 fps / 16:9 / High Profile 4.1
Audio: English / DTS-HD Master Audio / 5.1 / 96 kHz / 24-bit (DTS Core: 6.1 / 48 kHz / 1509 kbps / 24-bit)
Audio: English / LPCM Audio / 5.1 / 96 kHz / 13824 kbps / 24-bit
Audio: English / LPCM Audio / 2.0 / 96 kHz / 4608 kbps / 24-bit


********************
PLAYLIST: 00004.MPLS
********************

<–- BEGIN FORUMS PASTE –->

Total Video
Title Codec Length Movie Size Disc Size Bitrate Bitrate Main Audio Track Secondary Audio Track
––- ––– –––- ––––––– ––––––– –––- –––- ––––––––– ––––––––––-
00004.MPLS AVC 0:03:58 0 15 929 828 442 0,00 0,00 DTS-HD Master 5.1 (96kHz/24-bit) LPCM 5.1 13824Kbps (96kHz/24-bit)




DISC INFO:

Disc Title: Steven Wilson - 4,5 (2016) [Blu-Ray Audio]
Disc Size: 15 929 828 442 bytes
Protection: AACS
BD-Java: No
BDInfo: 0.5.8

PLAYLIST REPORT:

Name: 00004.MPLS
Length: 0:03:58.947 (h:m:s.ms)
Size: 0 bytes
Total Bitrate: 0,00 Mbps

VIDEO:

Codec Bitrate Description
––- –––- –––––-
MPEG-4 AVC Video 0 kbps 1080p / 23,976 fps / 16:9 / High Profile 4.1

AUDIO:

Codec Language Bitrate Description
––- –––– –––- –––––-
DTS-HD Master Audio English 0 kbps 5.1 / 96 kHz / 24-bit (DTS Core: 6.1 / 48 kHz / 1509 kbps / 24-bit)
LPCM Audio English 13824 kbps 5.1 / 96 kHz / 13824 kbps / 24-bit
LPCM Audio English 4608 kbps 2.0 / 96 kHz / 4608 kbps / 24-bit

FILES:

Name Time In Length Size Total Bitrate
–– –––- ––– –– ––––––-
00004.M2TS 0:00:00.000 0:03:57.946 0 0
00006.M2TS 0:03:57.946 0:00:01.000 0 0

CHAPTERS:

Number Time In Length Avg Video Rate Max 1-Sec Rate Max 1-Sec Time Max 5-Sec Rate Max 5-Sec Time Max 10Sec Rate Max 10Sec Time Avg Frame Size Max Frame Size Max Frame Time
––– –––- ––– ––––––– ––––––– ––––––– ––––––– ––––––– ––––––– ––––––– ––––––– ––––––– –––––––
1 0:00:00.000 0:03:57.946 0 kbps 0 kbps 00:00:00.000 0 kbps 00:00:00.000 0 kbps 00:00:00.000 0 bytes 0 bytes 00:00:00.000
2 0:03:57.946 0:00:01.000 0 kbps 0 kbps 00:00:00.000 0 kbps 00:00:00.000 0 kbps 00:00:00.000 0 bytes 0 bytes 00:00:00.000

STREAM DIAGNOSTICS:

File PID Type Codec Language Seconds Bitrate Bytes Packets
–– –- –– ––- –––– ––––––– ––––––– ––––––- ––-
00004.M2TS 4113 (0x1011) 0x1B AVC 0 0 0 0
00004.M2TS 4352 (0x1100) 0x86 DTS-HD MA eng (English) 0 0 0 0
00004.M2TS 4353 (0x1101) 0x80 LPCM eng (English) 0 0 0 0
00004.M2TS 4354 (0x1102) 0x80 LPCM eng (English) 0 0 0 0
00006.M2TS 4113 (0x1011) 0x1B AVC 0 0 0 0


Analyzed: Steven Wilson / 4 ½
––––––––––––––––––––––––––––––––––––––––

DR Peak RMS Duration Track
––––––––––––––––––––––––––––––––––––––––
DR10 -0.10 dB -13.41 dB 9:24 01-My Book Of Regrets
DR10 -5.55 dB -20.60 dB 4:16 02-Year Of The Plague
DR10 -0.10 dB -12.12 dB 4:31 03-Happiness III
DR11 0.00 dB -15.29 dB 3:50 04-Sunday Rain Sets In
DR9 -0.10 dB -11.56 dB 5:10 05-Vermillioncore
DR9 -0.10 dB -13.20 dB 9:34 06-Don't Hate Me
DR12 0.00 dB -14.98 dB 3:58 07-Lazarus (2015 Recording)
DR11 -0.10 dB -14.63 dB 3:35 08-My Book Of Regrets [Edit]
DR9 -0.10 dB -13.19 dB 9:35 09-Don't Hate Me [SW vocal version]
DR11 -0.10 dB -13.80 dB 9:36 10-My Book Of Regrets [Instrumental]
DR11 -0.10 dB -13.20 dB 4:33 11-Happiness III [Instrumental]
DR9 -0.10 dB -13.49 dB 9:35 12-Don't Hate Me [instrumental]
––––––––––––––––––––––––––––––––––––––––

Number of tracks: 12
Official DR value: DR10

Samplerate: 96000 Hz
Channels: 2
Bits per sample: 24
Bitrate: 2658 kbps
Codec: FLAC
================================================================================


.