Tags
Language
Tags

String Of Pearls - It Don't Mean A Thing (2004) [Japan 2019] SACD ISO + DSD64 + Hi-Res FLAC

Posted By:
String Of Pearls - It Don't Mean A Thing (2004) [Japan 2019] SACD ISO + DSD64 + Hi-Res FLAC

String Of Pearls - It Don't Mean A Thing (2004) [Japan 2019]
SACD Rip | SACD ISO | DSD64 2.0 > 1-bit/2.8224 MHz | 51:39 minutes | Front/Rear Covers | 1,59 GB
or DSD64 Stereo (from SACD-ISO to Tracks.dsf) > 1-bit/2.8224 MHz | Front/Rear Covers | 1,44 GB
or FLAC 2.0 (carefully converted & encoded to tracks) 24bit/48 kHz | Front/Rear Covers | 690 MB

Sue Halloran, Jeanne O'Connor and Holli Ross were all working as professional solo singers in New York when they were brought together to perform at a nostalgia-oriented concert. Since then the group has created a repertoire that ranges from authentic re-creations of Boswell Sisters songs from the 1930s, to adventurous original jazz arrangements. The Pearls' charming show can move from Andrews Sisters to Sinatra, Basie, Carole King, Brazilian, and bebop. For "It Don't Mean A Thing" they are compile an album of jazz favorites.

Tracklist:

01. It's Sand, Man
02. Forty Second Street
03. Girl Talk
04. Professor Bop
05. It Don't Mean A Thing
06. One Note Samba
07. Nice Work If You Can Get It
08. Straighten Up & Fly Right
09. I Hear Music
10. A String Of Pearls
11. Crazy People
12. Smack Dab In Middle
13. Teach Me Tonight
14. South American Way
15. Sermonette
16. Glow Worm
17. Sentimental Gentleman From Georgia

Personnel
Susan Halloran - vocals
Jeanne O' Connor - vocals
Holli Ross - vocals
Ken Peplowski - tenor, alto & soprano saxophones, flute and clarinet
Randy Sandke - trumpet
Tony Regusis - piano
Bill Moring - bass
Darryl Pellegrini - drums

Produced by Susan Halloran, Jeanne O'Connor and Holli Ross.
Mixed & Mastered by Tetsuo Hara. Engineered by Lenny Argese.
Venus Hyper Magnum Sound Direct Mix. VENUS Japan # VHGD-326.

foobar2000 1.6.4 / Dynamic Range Meter 1.1.1

––––––––––––––––––––––––––––––––––––––––
Analyzed: STRING OF PEARLS / It Don't Mean A Thing
––––––––––––––––––––––––––––––––––––––––

DR Peak RMS Duration Track
––––––––––––––––––––––––––––––––––––––––
DR9 -4.46 dB -14.66 dB 2:46 01-It's Sand, Man
DR9 -4.35 dB -14.51 dB 3:15 02-Forty Second Street
DR9 -4.53 dB -15.14 dB 2:40 03-Girl Talk
DR8 -4.40 dB -13.89 dB 2:37 04-Professor Bop
DR8 -4.26 dB -14.36 dB 3:27 05-It Don't Mean A Thing
DR10 -4.05 dB -16.59 dB 3:27 06-One Note Samba
DR9 -4.27 dB -14.73 dB 2:46 07-Nice Work If You Can Get It
DR9 -4.51 dB -15.02 dB 2:51 08-Straighten Up & Fly Right
DR8 -4.40 dB -13.97 dB 4:41 09-I Hear Music
DR8 -4.14 dB -13.44 dB 2:42 10-A String Of Pearls
DR8 -4.45 dB -13.41 dB 2:44 11-Crazy People
DR8 -4.27 dB -13.74 dB 3:00 12-Smack Dab In Middle
DR10 -4.46 dB -15.55 dB 3:47 13-Teach Me Tonight
DR9 -4.68 dB -14.97 dB 2:35 14-South American Way
DR8 -4.44 dB -13.56 dB 2:51 15-Sermonette
DR9 -4.58 dB -14.10 dB 2:40 16-Glow Worm
DR9 -4.50 dB -14.63 dB 2:49 17-Sentimental Gentleman From Georgia
––––––––––––––––––––––––––––––––––––––––

Number of tracks: 17
Official DR value: DR9

Samplerate: 2822400 Hz / PCM Samplerate: 176400 Hz
Channels: 2
Bits per sample: 1
Bitrate: 5645 kbps
Codec: DSD64


Thanks to jazzyman!
Uncompressed SACD ISO size > 2,07 GB
>