Tags
Language
Tags

Styx - Pieces Of Eight (1978) [Audio Fidelity 2017] PS3 ISO + Hi-Res FLAC

Posted By: HDAtall
Styx - Pieces Of Eight (1978) [Audio Fidelity 2017] PS3 ISO + Hi-Res FLAC

Styx - Pieces Of Eight (1978) [Audio Fidelity 2017]
PS3 Rip | SACD ISO | DSD64 2.0 > 1-bit/2.8224 MHz | 42:48 minutes | Scans included | 1,21 GB
or FLAC (converted with foobar2000 to tracks) 24bit/96 kHz | Full Scans included | 1,01 GB
Mastered by Kevin Gray | Audio Fidelity # AFZ-265

Pieces of Eight is the eighth studio album by Styx. Like the band's previous album, it managed to achieve triple platinum certification, thanks to the hit singles "Sing for the Day", "Blue Collar Man (Long Nights)" and "Renegade".

Styx's feisty, straightforward brand of album rock is represented best by "Blue Collar Man" from 1978's Pieces of Eight, an invigorating keyboard and guitar rush – hard and heavy, yet curved by Tommy Shaw's emphasized vocals. Reaching number 21, with the frolicking romp of "Renegade" edging in at number 16 only six months later, Pieces of Eight maintained their strength as a front-running FM radio group. Even though these two tracks were both mainstream singles, the rest of the album includes tracks that rekindle some of Styx's early progressive rock sound, only cleaner. Tracks like "Sing for the Day," "Lords of the Ring," and "Aku-Aku" all contain slightly more complex instrumental foundations, and are lyrically reminiscent of the material from albums like The Serpent Is Rising or Man of Miracles, but not as intricate or instrumentally convoluted. While the writing may stray slightly from what Styx provided on The Grand Illusion, Pieces of Eight kept their established rock formula in tact quite firmly.

Tracklist:

01. Great White Hope
02. I'm OK
03. Sing For The Day
04. The Message
05. Lords Of The Ring
06. Blue Collar Man (Long Nights)
07. Queen Of Spades
08. Renegade
09. Pieces Of Eight
10. Aku-Aku

Personnel
Dennis DeYoung – keyboards, vocals
Tommy Shaw – guitar, mandolin, vocals
James Young – guitar, vocals
Chuck Panozzo – bass
John Panozzo – drums

Mastered for this SACD by Kevin Gray at Cohearent Audio.
Authoring by Stephen Marsh at Marsh Mastering.

foobar2000 1.5.5 / Dynamic Range Meter 1.1.1

––––––––––––––––––––––––––––––––––––––––
Analyzed: Styx / Pieces Of Eight
––––––––––––––––––––––––––––––––––––––––

DR Peak RMS Duration Track
––––––––––––––––––––––––––––––––––––––––
DR12 -6.70 dB -20.83 dB 4:24 01-Great White Hope
DR11 -7.46 dB -21.75 dB 5:44 02-I'm OK
DR12 -7.45 dB -20.77 dB 5:01 03-Sing For The Day
DR10 -10.34 dB -24.99 dB 1:09 04-The Message
DR12 -6.89 dB -21.60 dB 4:38 05-Lords Of The Ring
DR12 -6.86 dB -20.41 dB 4:07 06-Blue Collar Man (Long Nights)
DR12 -6.54 dB -21.84 dB 5:41 07-Queen Of Spades
DR12 -7.78 dB -22.95 dB 4:17 08-Renegade
DR11 -6.20 dB -21.10 dB 4:44 09-Pieces Of Eight
DR13 -11.85 dB -28.96 dB 3:03 10-Aku-Aku
––––––––––––––––––––––––––––––––––––––––

Number of tracks: 10
Official DR value: DR12

Samplerate: 2822400 Hz / PCM Samplerate: 176400 Hz
Channels: 2
Bits per sample: 1
Bitrate: 5645 kbps
Codec: DSD64


Thanks to PS³SACD!
Uncompressed SACD ISO size > 1,71 GB
>