Tags
Language
Tags

Susanna Stivali - A Secret Place (2003/2014) [Official Digital Download 24-bit/96kHz]

Posted By: HDV
Susanna Stivali - A Secret Place (2003/2014) [Official Digital Download 24-bit/96kHz]

Susanna Stivali - A Secret Place (2003/2014)
FLAC (tracks) 24-bit/96 kHz | Time - 51:40 minutes | 1,09 GB
Studio Master, Official Digital Download | Artwork: Front cover

This album is a journey through what turns the voice into an instrument in constant search of more ways of expression: the melody, like in the best vocal jazz tradition; improvisation, as an extemporary creation and as a moment of communion with the other instruments; and writing, intended as a creative act to be shared and as a story about ones self to be told through the lyrics and their playing along with the music. Five out of the eight tracks in the CD are original lyrics and music compositions by Susanna Stivali (apart from "All the Joys" which takes the lyrics from an Emily Dickinson poem). The other three are re-adaptations of standard jazz (as in the 'jungle' version of "Lazy Afternoon"). The choice of the English language comes from the author's familiarity with it and its natural disposition for sounds and expressions. All pieces are totally detached from one another, moving from swing to "song-style" patterns, to more 'open' improvisation moments. There are also chances to enjoy the instrument players solo skills while they accompany the lyrics. Apart from the skills of the three musicians, the most important factor is the band's harmony and the distinctive sound that results from it. Accompanying Susanna Stivali: Luca Mannutza at the piano, Marco Loddo at the double-bass, Nicola Angelucci at the drums, who have been playing together for about three years.

Tracklist:

01 - Close Your Eyes
02 - Ex
03 - All The Joys
04 - Nature Boy
05 - Lazy Afternoon
06 - A Secret Place
07 - So Far
08 - Tide

Analyzed: Susanna Stivali feat. Rosario Giuliani / A Secret Place
––––––––––––––––––––––––––––––––––––––––

DR Peak RMS Duration Track
––––––––––––––––––––––––––––––––––––––––
DR9 -0.56 dB -12.76 dB 6:04 01-Close Your Eyes
DR9 -0.66 dB -13.73 dB 7:37 02-Ex
DR10 -0.68 dB -13.98 dB 4:01 03-All The Joys
DR9 -0.67 dB -13.90 dB 8:28 04-Nature Boy
DR9 -0.79 dB -12.65 dB 9:21 05-Lazy Afternoon
DR8 -0.75 dB -12.53 dB 5:38 06-A Secret Place
DR10 -0.76 dB -14.54 dB 5:10 07-So Far
DR8 -0.65 dB -11.40 dB 5:20 08-Tide
––––––––––––––––––––––––––––––––––––––––

Number of tracks: 8
Official DR value: DR9

Samplerate: 96000 Hz
Channels: 2
Bits per sample: 24
Bitrate: 3030 kbps
Codec: FLAC
================================================================================


Thanks to the Original customer!