Sviatoslav Richter - Deutsche Grammophon Concerto Recordings (2019) [Japan 2019] 3x SACD ISO + Hi-Res FLAC

Posted By: HDAtall
Sviatoslav Richter - Deutsche Grammophon Concerto Recordings (2019) [Japan 2019] 3x SACD ISO + Hi-Res FLAC

Sviatoslav Richter - Deutsche Grammophon Concerto Recordings (2019) [3x SACD]
SACD Rip | SACD ISO | DSD64 2.0 > 1-bit/2.8224 MHz | 219:09 min | Scans incl. | 5,92 GB
or FLAC (converted with foobar2000 to tracks) 24bit/96 kHz | Scans included | 4,74 GB
Features 1958, 1959 & 1962 Recordings | Deutsche Grammophon / Tower Records, Japan # PROC 2196~8

From the heyday of Svyatoslav Richter, all the concertos recorded by DG from 1958 to 62 were assembled into 3 pieces (except Disc 3, these are 1st time on SACD). Features the works by Robert Schumann, W.A. Mozart, Sergey Prokofiev, Ludwig Van Beethoven, Sergei Rachmaninov & P.I. Tchaikovsky. This is a Sviatoslav Richter's special collaboration with Wittold Lovitki, Kurt Sanderling, Herbert von Karajan, Warsaw National Philharmonic Orchestra, Vienna Symphony Orchestra, etc. Features the new mastering from the original analogue master tapes.

From the age of 43 to 46, Richter has gathered all three concertos recorded on the DG label during the middle of the season. Except DISC3 Tchaikovsky and Rachmaninov, it is the world's first SA-CD. Neither of these two songs has been on the market for a while on SA-CD, and they have not been marketed by Universal.
Richter, who was known as a phantom pianist and rarely performed in the West, recorded a picture of an exhibition in Sofia, Bulgaria in February 1958, which was released on the West as a record. The real name will be earned worldwide. In 1958, the 1st Tchaikovsky Competition was held and Richter participated as a judge. The influence was growing more and more, such as acclaiming Cliburn. DG, who had already recorded Schumann's solo work in November 1956, finally started recording a concerto in October 1958 with the DG staff getting into Warsaw. The first recording was Schumann, the first song of DISC1. In April of the following year, four songs were recorded together, including Mozart, Prokofiev, and Rachmaninoff, and the evaluation of Richel was fixed. Among them, Richel (piano sonata No. 7 premiere), who had a close relationship with Prokofiev, was especially loved by No. 5 (recorded in the former EMI with Masere in 1970), and it is also evaluated that there is still no performance beyond this The second record of Rachmaninov, an absolute masterpiece, became a recording that will remain in history.

Tracklist

DISC 1:
01. Schumann: Piano Concerto In A Minor, Op.54 - 1. Allegro affettuoso
02. Schumann: Piano Concerto In A Minor, Op.54 - 2. Intermezzo (Andantino grazioso)
03. Schumann: Piano Concerto In A Minor, Op.54 - 3. Allegro vivace*
04. Schumann: Piano Concerto In A Minor, Op.54 - Introduction & Allegro Appassionato For Piano & Orchestra, Op.92
05. Mozart: Piano Concerto No.20 In D Minor, K.466 - 1. Allegro
06. Mozart: Piano Concerto No.20 In D Minor, K.466 - 2. Romance
07. Mozart: Piano Concerto No.20 In D Minor, K.466 - 3. Rondo (Allegro assai)

foobar2000 1.4.8 / Dynamic Range Meter 1.1.1

––––––––––––––––––––––––––––––––––––––––
Analyzed: Sviatoslav Richter / Deutsche Grammophon Concerto Recordings
––––––––––––––––––––––––––––––––––––––––

DR Peak RMS Duration Track
––––––––––––––––––––––––––––––––––––––––
DR12 -6.01 dB -22.28 dB 14:37 01-Schumann: Piano Concerto In A Minor, Op.54 1. Allegro affettuoso
DR14 -11.06 dB -28.14 dB 4:56 02-Schumann: Piano Concerto In A Minor, Op.54 2. Intermezzo (Andantino grazioso)
DR13 -6.35 dB -22.48 dB 10:56 03-Schumann: Piano Concerto In A Minor, Op.54 3. Allegro vivace
DR11 -7.86 dB -23.32 dB 15:54 04-Schumann: Introduction & Allegro Appassionato For Piano & Orchestra, Op.92
DR11 -7.11 dB -23.15 dB 14:41 05-Mozart: Piano Concerto No.20 In D Minor, K.466 1. Allegro
DR11 -8.61 dB -24.34 dB 10:18 06-Mozart: Piano Concerto No.20 in D minor, K.466 2. Romance
DR11 -6.73 dB -21.65 dB 8:16 07-Mozart: Piano Concerto No.20 In D Minor, K.466 3. Rondo (Allegro assai)
––––––––––––––––––––––––––––––––––––––––

Number of tracks: 7
Official DR value: DR12

Samplerate: 2822400 Hz / PCM Samplerate: 176400 Hz
Channels: 2
Bits per sample: 1
Bitrate: 5645 kbps
Codec: DSD64



DISC 2:
01. Prokofiev: Piano Concerto No.5 In G Major, Op.55 - 1. Allegro con brio
02. Prokofiev: Piano Concerto No.5 In G Major, Op.55 - 2. Moderato ben accentuato
03. Prokofiev: Piano Concerto No.5 In G Major, Op.55 - 3. Toccata
04. Prokofiev: Piano Concerto No.5 In G Major, Op.55 - 4. Larghetto
05. Prokofiev: Piano Concerto No.5 In G Major, Op.55 - 5. Vivo
06. Beethoven: Piano Concerto No.3 In C Minor, Op.37 - 1. Allegro con brio
07. Beethoven: Piano Concerto No.3 In C Minor, Op.37 - 2. Largo
08. Beethoven: Piano Concerto No.3 In C Minor, Op.37 - 3. Rondo (Allegro)
09. Beethoven: Piano Concerto No.3 In C Minor, Op.37 - Fragment, erganzt von Carl Czerny Rondo In B Flat For Piano & Orchestra, WoO6

foobar2000 1.4.8 / Dynamic Range Meter 1.1.1

––––––––––––––––––––––––––––––––––––––––
Analyzed: Sviatoslav Richter / Deutsche Grammophon Concerto Recordings
––––––––––––––––––––––––––––––––––––––––

DR Peak RMS Duration Track
––––––––––––––––––––––––––––––––––––––––
DR13 -7.94 dB -24.48 dB 5:04 01-Prokofiev: Piano Concerto No.5 In G Major, Op.55 1. Allegro con brio
DR11 -6.51 dB -21.63 dB 4:00 02-Prokofiev: Piano Concerto No.5 In G Major, Op.55 2. Moderato ben accentuato
DR11 -7.56 dB -20.43 dB 1:56 03-Prokofiev: Piano Concerto No.5 In G Major, Op.55 3. Toccata
DR11 -8.02 dB -24.91 dB 6:41 04-Prokofiev: Piano Concerto No.5 In G Major, Op.55 4. Larghetto
DR13 -6.58 dB -23.96 dB 5:15 05-Prokofiev: Piano Concerto No.5 In G Major, Op.55 5. Vivo
DR13 -6.83 dB -24.46 dB 17:15 06-Beethoven: Piano Concerto No.3 In C Minor, Op.37 1. Allegro con brio
DR13 -8.01 dB -27.30 dB 10:01 07-Beethoven: Piano Concerto No.3 in C minor, Op.37 2. Largo
DR11 -6.75 dB -22.51 dB 8:50 08-Beethoven: Piano Concerto No.3 in C minor, Op.37 3. Rondo (Allegro)
DR11 -7.53 dB -24.37 dB 9:22 09-Beethoven: Fragment, erganzt von Carl Czerny Rondo In B Flat For Piano & Orchestra, WoO6
––––––––––––––––––––––––––––––––––––––––

Number of tracks: 9
Official DR value: DR12

Samplerate: 2822400 Hz / PCM Samplerate: 176400 Hz
Channels: 2
Bits per sample: 1
Bitrate: 5645 kbps
Codec: DSD64



DISC 3:
01. Rachmaninov: Piano Concerto No. 2 in C Minor, Op. 18 - 1. Moderato
02. Rachmaninov: Piano Concerto No. 2 in C Minor, Op. 18 - 2. Adagio sostenuto
03. Rachmaninov: Piano Concerto No. 2 in C Minor, Op. 18 - 3. Allegro scherzando
04. Tchaikovsky: Piano Concerto No. 1 in B-Flat Minor, Op. 23, TH 55 - 1. Allegro non troppo e molto maestoso - Allegro con spirito
05. Tchaikovsky: Piano Concerto No. 1 in B-Flat Minor, Op. 23, TH 55 - 2. Andantino semplice - Prestissimo - Tempo I
06. Tchaikovsky: Piano Concerto No. 1 in B-Flat Minor, Op. 23, TH 55 - 3. Allegro con fuoco

foobar2000 1.4.8 / Dynamic Range Meter 1.1.1

––––––––––––––––––––––––––––––––––––––––
Analyzed: Sviatoslav Richter / Deutsche Grammophon Concerto Recordings
––––––––––––––––––––––––––––––––––––––––

DR Peak RMS Duration Track
––––––––––––––––––––––––––––––––––––––––
DR11 -5.82 dB -21.81 dB 11:10 01-Rachmaninov: Piano Concerto No. 2 in C Minor, Op. 18 1. Moderato
DR13 -6.46 dB -26.26 dB 11:56 02-Rachmaninov: Piano Concerto No. 2 in C Minor, Op. 18 2. Adagio sostenuto
DR12 -5.85 dB -22.99 dB 11:45 03-Rachmaninov: Piano Concerto No. 2 in C Minor, Op. 18 3. Allegro scherzando
DR13 -5.73 dB -23.57 dB 22:08 04-Tchaikovsky: Piano Concerto No. 1 in B-Flat Minor, Op. 23, TH 55 1. Allegro non troppo e molto maestoso - Allegro con spirito
DR16 -8.13 dB -31.89 dB 6:55 05-Tchaikovsky: Piano Concerto No. 1 in B-Flat Minor, Op. 23, TH 55 2. Andantino semplice - Prestissimo - Tempo I
DR11 -5.90 dB -21.52 dB 7:12 06-Tchaikovsky: Piano Concerto No. 1 in B-Flat Minor, Op. 23, TH 55 3. Allegro con fuoco
––––––––––––––––––––––––––––––––––––––––

Number of tracks: 6
Official DR value: DR12

Samplerate: 2822400 Hz / PCM Samplerate: 176400 Hz
Channels: 2
Bits per sample: 1
Bitrate: 5645 kbps
Codec: DSD64


Sviatoslav Richter - piano
Schumann: Piano Concerto In A Minor - Recorded in Warsaw, October 1958 (Warsaw National Philharmonic Orchestra, Conducted by Wittold Lovitki)
Schumann: Prelude and Allegro A passionate in G major - Recorded in Warsaw, April 1959 (Warsaw National Philharmonic Orchestra, Conducted by Stanislav Wistrock)
Mozart: Piano Concerto No. 20 - Recorded in Warsaw, April 1959 (Warsaw National Philharmonic Orchestra, Conducted by Stanislav Wistrock)
Prokofiev: Piano Concerto No. 5 - Recorded in Warsaw, April 1959 (Warsaw National Philharmonic Orchestra, Conducted by Wittold Lovitki)
Beethoven: Piano Concerto No. 3 - Recorded in Vienna, September 1962 (Vienna Symphony Orchestra, Conducted by Kurt Sanderling)
Beethoven: Rondo for Piano and Orchestra in B flat major - Recorded in Vienna, September 1962 (Vienna Symphony Orchestra, Conducted by Kurt Sanderling)
Rachmaninov: Piano Concerto No. 2 - Recorded in Warsaw, April 1959 (Warsaw National Philharmonic Orchestra, Conducted by Wittold Lovitki)
Tchaikovsky: Piano Concerto No. 1 - Recorded in Vienna, September 1962 (Vienna Symphony Orchestra, Conducted by Herbert von Karajan)

DSD Remastered in February 2019 by Emil Berliner Studios.

Thanks to jack168 & ManWhoCan!
Uncompressed SACD ISO size > 3,19 + 2,74 + 2,84 GB
>