Takacs Quartet - Franz Schubert: String Quintet D956 & String Quartet D703 (2012) [Official Digital Download 24/96]

Posted By: HDV
Takacs Quartet - Franz Schubert: String Quintet D956 & String Quartet D703 (2012) [Official Digital Download 24/96]

Takács Quartet - Franz Schubert: String Quintet D956 & String Quartet D703 (2012)
FLAC (tracks) 24 bit/96 kHz | Time - 63:41 minutes | 1,16 GB
Studio Master, Official Digital Download | Artwork: Digital booklet

The matchless Takács Quartet return to Schubert. Their first disc on Hyperion—his ‘Death and the Maiden’ and ‘Rosamunde’ quartets—received unprecedently lavish critical acclaim, acknowledging a new modern benchmark for these works. Now they turn to perhaps the most hauntingly beautiful of all Schubert’s chamber works, the String Quintet—completed six weeks before the composer’s death. Schubert included a second cello in the texture, creating a sumptuously warm sound, a cradling intimacy. Here the Takács players are joined by cellist Ralph Kirshbaum. Also recorded here is the ‘Quartettsatz’: a fragment—of the highest quality—of a String Quartet in C minor abandoned by the composer.

Tracklist:

01 - Schubert: String Quintet in C major, D956 - 1: Allegro ma non troppo
02 - Schubert: String Quintet in C major, D956 - 2: Adagio
03 - Schubert: String Quintet in C major, D956 - 3: Scherzo: Presto – Trio: Andante sostenuto
04 - Schubert: String Quintet in C major, D956 - 4: Allegretto
05 - Schubert: String Quartet in C minor 'Quartettsatz', D703

Analyzed: Takács Quartet / Schubert: String Quintet & String Quartet D703
––––––––––––––––––––––––––––––––––––––––

DR Peak RMS Duration Track
––––––––––––––––––––––––––––––––––––––––
DR15 -0.60 dB -21.75 dB 19:54 01-Schubert: String Quintet in C major, D956 - 1: Allegro ma non troppo
DR15 -2.55 dB -24.63 dB 14:31 02-Schubert: String Quintet in C major, D956 - 2: Adagio
DR15 -0.25 dB -19.80 dB 10:28 03-Schubert: String Quintet in C major, D956 - 3: Scherzo: Presto – Trio: Andante sostenuto
DR15 0.00 dB -21.07 dB 9:42 04-Schubert: String Quintet in C major, D956 - 4: Allegretto
DR17 -1.24 dB -24.34 dB 9:05 05-Schubert: String Quartet in C minor 'Quartettsatz', D703
––––––––––––––––––––––––––––––––––––––––

Number of tracks: 5
Official DR value: DR15

Samplerate: 96000 Hz
Channels: 2
Bits per sample: 24
Bitrate: 2466 kbps
Codec: FLAC
================================================================================


Thanks to the Original customer!