Tamas Vasary, Berlin Philarmonic Orchestra, Janos Kulka - Chopin: Piano Concerto No.2 (1963/2015) [DSD128 + Hi-Res FLAC]

Posted By: HDV
Tamas Vasary, Berlin Philarmonic Orchestra, Janos Kulka - Chopin: Piano Concerto No.2 (1963/2015) [DSD128 + Hi-Res FLAC]

Tamás Vásáry, BPO, Janos Kulka - Chopin: Piano Concerto No.2 (1963/2015)
DSD128 (.dsf) 1 bit/5,6 MHz | Time - 51:26 minutes | 2,35 GB
FLAC (tracks) 24-bit/96 kHz | Time - 51:26 minutes | 983 MB
Studio Master, Official Digital Download | Artwork: Digital booklet

From the poet of the piano, Frederic Chopin, comes a compilation of some of his most memorable moments – both for solo piano and for piano with orchestra. Here is Frédéric Chopin's Concerto For Piano And Orchestra No. 2 In F Minor, Op. 21; Andante Spianato & Grande Polonaise, Op. 22 & Grand Polonaise Nocturne In C Sharp Minor, Op. Posth. Tamás Vásáry plays piano. Berliner Philharmoniker (Berlin Philharmonic Orchestra) conducted by Janos Kulka. A superb performance, recorded in 1963 at Jesus-Christus-Kirche, Berlin.

Tracklist:

01 - Concerto For Piano And Orchestra No. 2 In F Minor, Op. 21 - Maestoso
02 - Concerto For Piano And Orchestra No. 2 In F Minor, Op. 21 - Larghetto
03 - Concerto For Piano And Orchestra No. 2 In F Minor, Op. 21 - Allegro Vivace
04 - Andante Spianato & Grande Polonaise, Op. 22
05 - Nocturne In C Sharp Minor, Op. Posth

Recorded in 1963 at Jesus-Christus-Kirche, Berlin.
Transferred from a DGG 4-Track Tape.

Musicians:
Tamás Vásáry - piano
Berlin Philharmonic Orchestra, Conducted by Janos Kulka (tracks 1 to 3)

Analyzed: Tamás Vásáry, Berlin Philharmonic Orchestra, Janos Kulka / Chopin: Piano Concerto No. 2, Andante Spianato & Grand Polonaise Nocturn
––––––––––––––––––––––––––––––––––––––––

DR Peak RMS Duration Track
––––––––––––––––––––––––––––––––––––––––
DR11 -6.90 dB -23.16 dB 14:55 01-Concerto No. 2/Maestoso
DR13 -8.54 dB -28.27 dB 9:40 02-Concerto No. 2/Larghetto
DR13 -9.30 dB -26.93 dB 8:40 03-Concerto No. 2/Allegro Vivace
DR13 -9.19 dB -27.71 dB 14:16 04-Andante Spianato & Grande Polonaise, Op.22
DR13 -11.43 dB -31.37 dB 3:54 05-Nocturne In C Sharp Minor, Op. Posth
––––––––––––––––––––––––––––––––––––––––

Number of tracks: 5
Official DR value: DR12

Samplerate: 5644800 Hz / PCM Samplerate: 176400 Hz
Channels: 2
Bits per sample: 1
Bitrate: 11290 kbps
Codec: DSD128
================================================================================


Thanks to the Original customer!