Tammy Wynette - Another Lonely Song (1974/2014) [Official Digital Download 24-bit/96kHz]

Posted By: HDV
Tammy Wynette - Another Lonely Song (1974/2014) [Official Digital Download 24-bit/96kHz]

Tammy Wynette - Another Lonely Song (1974/2014)
FLAC (tracks) 24-bit/96 kHz | Time - 30:04 minutes | 615 MB
Studio Master, Official Digital Download | Artwork: Front cover

Another Lonely Song is the twelfth studio album by American country music singer-songwriter Tammy Wynette. It was released on March 18, 1974, by Epic Records. The album peaked at No. 8 on the Billboard Country Albums chart. The album's only single, "Another Lonely Song", peaked at No. 1 on the Billboard Country Singles chart.

Tracklist:

01 - Another Lonely Song
02 - Crying Steel Guitar
03 - What My Thoughts Do All The Time
04 - Stayin' Home Woman
05 - Satin Sheets
06 - Homecoming
07 - Help Me Make It Through The Night
08 - Keep Me In Mind
09 - Oh, How I Miss Him
10 - With Child
11 - One Final Stand

Analyzed: Tammy Wynette / Another Lonely Song
––––––––––––––––––––––––––––––––––––––––

DR Peak RMS Duration Track
––––––––––––––––––––––––––––––––––––––––
DR12 -0.12 dB -16.56 dB 2:41 01-Another Lonely Song
DR12 -1.90 dB -16.89 dB 3:05 02-Crying Steel Guitar
DR13 -0.98 dB -17.02 dB 2:35 03-What My Thoughts Do All The Time
DR13 0.00 dB -15.97 dB 2:19 04-Stayin' Home Woman
DR11 -0.59 dB -15.22 dB 2:55 05-Satin Sheets
DR13 -1.33 dB -17.81 dB 2:27 06-Homecoming
DR13 -0.31 dB -19.29 dB 2:46 07-Help Me Make It Through The Night
DR13 -0.12 dB -17.95 dB 3:09 08-Keep Me In Mind
DR12 -1.34 dB -16.74 dB 2:18 09-Oh, How I Miss Him
DR13 -0.66 dB -17.76 dB 2:59 10-With Child
DR12 -0.84 dB -16.42 dB 2:50 11-One Final Stand
––––––––––––––––––––––––––––––––––––––––

Number of tracks: 11
Official DR value: DR12

Samplerate: 96000 Hz
Channels: 2
Bits per sample: 24
Bitrate: 2755 kbps
Codec: FLAC
================================================================================


Thanks to the Original customer!