Tags
Language
Tags

Tammy Wynette - The Ways To Love A Man (1970/2013) [Official Digital Download 24-bit/96kHz]

Posted By: HDV
Tammy Wynette - The Ways To Love A Man (1970/2013) [Official Digital Download 24-bit/96kHz]

Tammy Wynette - The Ways To Love A Man (1970/2013)
FLAC (tracks) 24-bit/96 kHz | Time - 28:15 minutes | 595 MB
Studio Master, Official Digital Download | Artwork: Front cover

The Ways to Love a Man is the sixth studio album by American country music singer-songwriter Tammy Wynette. It was released on January 26, 1970, by Epic Records. The album peaked at No. 3 on Billboard's Country Albums chart and at No. 83 on the Billboard Hot 100. The album's only single, "The Ways to Love a Man", peaked at No. 1 on the Billboard Country Singles chart, Wynette's seventh song to top the chart.

Released after a series of star-making, genre-defining records – and her first new collection of songs since her 1969 Greatest Hits – Tammy Wynette's 1969 album The Ways to Love a Man found her and producer Billy Sherrill at cruising altitude, delivering an album that easily replicated the sound and feel of Stand by Your Man. If anything, the album felt a bit too easy, as Sherrill began making his productions smoother and silkier, sanding away any of the lingering rough country edges that were on Stand by Your Man, giving Tammy's impeccably luxurious surroundings. It's an appropriate setting for the First Lady of Country Music even if it ironically feels a bit more pop than country, but the key to Sherrill's productions was how he made them grand and then singers like Tammy or her husband George Jones grounded them. More than any of Sherrill's other vocalists, Tammy seemed to slide into the soft textures of his productions, and nowhere was that sound softer than it was on The Ways to Love a Man, where Tammy comfortably covered Johnny Mathis' "The Twelfth of Never." This may have been the only time on the record that she sang an old-fashioned crooner, yet the album retains a romantic mood, verging on being a countrypolitan make-out record (which is quite befitting for an LP called The Ways to Love a Man and whose biggest hit was the title track). This sustained mood is appealing, even seductive, but the album is just a shade less compelling overall than its immediate predecessor…but that is a pretty tough yardstick to judge any country album, really.

Tracklist:

01 - The Ways To Love A Man
02 - The Twelfth Of Never
03 - I'll Share My World With You
04 - Enough Of A Woman
05 - Singing My Song
06 - He'll Never Take The Place Of You
07 - I Know
08 - Yearning (To Kiss You)
09 - These Two
10 - Where Could You Go (But To Her)
11 - Still Around

Analyzed: Tammy Wynette / The Ways To Love A Man
––––––––––––––––––––––––––––––––––––––––

DR Peak RMS Duration Track
––––––––––––––––––––––––––––––––––––––––
DR10 -2.94 dB -17.99 dB 2:30 01-The Ways To Love A Man
DR10 -1.46 dB -15.01 dB 2:29 02-The Twelfth Of Never
DR9 -2.94 dB -14.99 dB 2:44 03-I'll Share My World With You
DR10 -0.72 dB -14.26 dB 2:06 04-Enough Of A Woman
DR9 -3.26 dB -16.20 dB 2:25 05-Singing My Song
DR12 -1.40 dB -18.72 dB 2:53 06-He'll Never Take The Place Of You
DR10 -4.32 dB -17.89 dB 2:32 07-I Know
DR12 -3.31 dB -17.73 dB 2:22 08-Yearning (To Kiss You)
DR10 -5.00 dB -17.13 dB 2:25 09-These Two
DR12 -1.39 dB -16.55 dB 3:03 10-Where Could You Go (But To Her)
DR12 -2.89 dB -18.65 dB 2:47 11-Still Around
––––––––––––––––––––––––––––––––––––––––

Number of tracks: 11
Official DR value: DR11

Samplerate: 96000 Hz
Channels: 2
Bits per sample: 24
Bitrate: 2836 kbps
Codec: FLAC
================================================================================


Thanks to the Original customer!