Tags
Language
Tags

Tears For Fears - Songs From The Big Chair (1985) [BD-Audio 2014] [FLAC 24-bit/96kHz]

Posted By:
Tears For Fears - Songs From The Big Chair (1985) [BD-Audio 2014] [FLAC 24-bit/96kHz]

Tears For Fears - Songs From The Big Chair (1985/2014)
FLAC (tracks) Stereo 24-bit/96 kHz | Time - 42:03 minutes | 931 MB
Blu-Ray Audio Rip | Sourced Track - LPCM 2.0 Stereo | Full Artwork
Features new Steven Wilson's Stereo Remix (2014)

"Songs from the Big Chair" is the second studio album by the British rock/pop band Tears for Fears. It peaked at number two in the UK and number one in the US and Canada. It spawned the international hit singles "Mothers Talk", "Shout", "Everybody Wants to Rule the World", "Head over Heels", and "I Believe". It remains their best-selling album to date.

If The Hurting was mental anguish, Songs from the Big Chair marks the progression towards emotional healing, a particularly bold sort of catharsis culled from Roland Orzabal and Curt Smith's shared attraction to primal scream therapy. The album also heralded a dramatic maturation in the band's music, away from the synth-pop brand with which it was (unjustly) seared following the debut, and towards a complex, enveloping pop sophistication. The songwriting of Orzabal, Smith, and keyboardist Ian Stanley took a huge leap forward, drawing on reserves of palpable emotion and lovely, protracted melodies that draw just as much on soul and R&B music as they do on immediate pop hooks. The album could almost be called pseudo-conceptual, as each song holds its place and each is integral to the overall tapestry, a single-minded resolve that is easy to overlook when an album is as commercially successful as Songs from the Big Chair. And commercially successful it was, containing no less than three huge commercial radio hits, including the dramatic and insistent march, "Shout" and the shimmering, cascading "Head Over Heels," which, tellingly, is actually part of a song suite on the album. Orzabal and Smith's penchant for theorizing with steely-eyed austerity was mistaken for harsh bombasticism in some quarters, but separated from its era, the album only seems earnestly passionate and immediate, and each song has the same driven intent and the same glistening remoteness. It is not only a commercial triumph, it is an artistic tour de force. And in the loping, percolating "Everybody Wants to Rule the World," Tears for Fears perfectly captured the zeitgeist of the mid-'80s while impossibly managing to also create a dreamy, timeless pop classic. Songs from the Big Chair is one of the finest statements of the decade.

Tracklist:

01 - Shout
02 - The Working Hour
03 - Everybody Wants To Rule The World
04 - Mothers Talk
05 - I Believe
06 - Broken
07 - Head Over Heels
08 - Listen

Analyzed: Tears For Fears / Songs From The Big Chair (2014 Stereo Mix)
––––––––––––––––––––––––––––––––––––––––

DR Peak RMS Duration Track
––––––––––––––––––––––––––––––––––––––––
DR11 -0.10 dB -12.70 dB 6:41 01-Shout
DR11 -0.10 dB -13.50 dB 6:33 02-The Working Hour
DR11 -0.10 dB -12.78 dB 4:12 03-Everybody Wants To Rule The World
DR12 -0.10 dB -13.63 dB 5:08 04-Mothers Talk
DR13 -0.82 dB -17.57 dB 4:56 05-I Believe
DR11 -0.10 dB -13.48 dB 2:40 06-Broken
DR10 -0.03 dB -12.18 dB 4:54 07-Head Over Heels
DR11 -0.10 dB -14.80 dB 6:59 08-Listen
––––––––––––––––––––––––––––––––––––––––

Number of tracks: 8
Official DR value: DR11

Samplerate: 96000 Hz
Channels: 2
Bits per sample: 24
Bitrate: 2527 kbps
Codec: FLAC
================================================================================


All files were fully tagged.