Tags
Language
Tags

The David Grisman Sextet - The David Grisman Sextet (2016/2017) [Official Digital Download 24-bit/96kHz]

Posted By: HDV
The David Grisman Sextet - The David Grisman Sextet (2016/2017) [Official Digital Download 24-bit/96kHz]

The David Grisman Sextet - The David Grisman Sextet (2016)
FLAC (tracks) 24-bit/96 kHz | Time - 53:53 minutes | 1,15 GB
Studio Master, Official Digital Download | Artwork: Front cover

In 1976 the newly-formed David Grisman Quintet recorded the first album of dawg music, an acoustic blend of many styles and traditions. Now forty years later that music continues to evolve with this first recording of the David Grisman Sextet. Many faces, hearts and hands have changed but the musical vision is still intact - the Dawg's own music.

This release, the first album of Grisman originals in a decade, features dawg veterans Jim Kerwin (bass), Matt Eakle (flute), George Marsh (drums), new members Chad Manning (fiddle) and George Cole (guitar) and the Dawg himself. The tunes and arrangements offer the widest range of influences from swing and jazz to bluegrass, latin, funk and even old-time and ragtime! Don't miss this latest exciting chapter in Dawg music history!

Tracklist:

01 - Bells Of Camoglia
02 - The Purple Grotto
03 - Newly Wedding
04 - Slinky
05 - Horn Pipe Dream
06 - Waltz For Gigi
07 - Dawg's Bounce
08 - Hannah & Rio
09 - Del & Dawg

Musicians:
David Grisman - mandolin, banjo-mandolin
Jim Kerwin - bass
Matt Eakle - flute, bass flute, kazoo, penny whistle
George Marsh - drums, percussion
Chad Manning - fiddle
George Cole - guitar

Analyzed: The David Grisman Sextet / The David Grisman Sextet
––––––––––––––––––––––––––––––––––––––––

DR Peak RMS Duration Track
––––––––––––––––––––––––––––––––––––––––
DR12 0.00 dB -14.08 dB 5:27 01-Bells Of Camoglia
DR12 0.00 dB -13.81 dB 4:51 02-The Purple Grotto
DR12 -0.72 dB -15.16 dB 5:51 03-Newly Wedding
DR12 0.00 dB -13.54 dB 5:58 04-Slinky
DR11 -0.83 dB -14.15 dB 5:46 05-Horn Pipe Dream
DR12 0.00 dB -15.37 dB 7:52 06-Waltz For Gigi
DR12 0.00 dB -14.32 dB 6:18 07-Dawg's Bounce
DR13 0.00 dB -15.90 dB 6:36 08-Hannah & Rio
DR12 0.00 dB -14.57 dB 5:14 09-Del & Dawg
––––––––––––––––––––––––––––––––––––––––

Number of tracks: 9
Official DR value: DR12

Samplerate: 96000 Hz
Channels: 2
Bits per sample: 24
Bitrate: 2880 kbps
Codec: FLAC
================================================================================


Thanks to the Original customer!