Tags
Language
Tags

Jerry Goldsmith - The Great Train Robbery (1979) [Reissue 2004] SACD PS3 ISO + DSD64 + Hi-Res FLAC

Posted By:
Jerry Goldsmith - The Great Train Robbery (1979) [Reissue 2004] SACD PS3 ISO + DSD64 + Hi-Res FLAC

Jerry Goldsmith - The Great Train Robbery (1979) [Reissue 2004]
SACD Rip | SACD ISO | DST64 2.0 & 5.0 > 1-bit/2.8224 MHz | 35:56 minutes | Full Artwork (PDF) | 2,14 GB
or DSD64 2.0 Stereo (from SACD-ISO to Tracks.dsf) > 1-bit/2.8224 MHz | Full Artwork (PDF) | 970 MB
or FLAC 2.0 Stereo (converted with foobar2000 to tracks) 24bit/96 kHz | Full Artwork (PDF) | 857 MB
Features Stereo and Qudrophonic Surround Sound

Jerry Goldsmith's remarkable 78/79 season saw the composer tackle a series of major movies with diverse subject matters and complement each of them with equally diverse and impressive scores. Amongst the thrillers, sci-fi, horror and drama came a hugely enjoyable period caper; The Great Train Robbery. A lighted hearted romp through Victorian England, directed by Michael Crichton, based on his book. Varése Sarabande have produced a welcome re-issue of this delightful Jerry Goldsmith score, presenting it as a multi channel SACD, though often lacking the dynamics and vibrancy of the Memoir CD, and elevated it to deluxe edition status by including extra music too, though sadly this is not the complete score. Apart from minor omissions, the key missing cue is of course Dead Willy, the music that accompanies Clean Willy as he is chased and then killed for betraying Pierce to the Police, oddly absent from the 24 track masters used here.

Tracklist:

01. Main Title
02. Breakfast In Bed
03. No Respectable Gentleman
04. Clues
05. Rotten Row
06. The First Key / Bordello Raid
07. Kiddie Kaper
08. Street Attack / Casing the Station
09. Over the Wall
10. Night Entry
11. Double Wax Job
12. The Tombstone
13. Departure
14. The Gold Arrives
15. Torn Coat
16. End Title

foobar2000 1.6.5 / Dynamic Range Meter 1.1.1

––––––––––––––––––––––––––––––––––––––––
Analyzed: Jerry Goldsmith / The Great Train Robbery
––––––––––––––––––––––––––––––––––––––––

DR Peak RMS Duration Track
––––––––––––––––––––––––––––––––––––––––
DR14 -4.73 dB -25.44 dB 2:34 01-Main Title
DR13 -7.66 dB -31.38 dB 1:48 02-Breakfast In Bed
DR13 -10.71 dB -31.85 dB 2:23 03-No Respectable Gentleman
DR14 -7.37 dB -30.64 dB 3:54 04-Clues
DR12 -12.12 dB -30.40 dB 2:41 05-Rotten Row
DR12 -5.43 dB -25.85 dB 0:51 06-The First Key / Bordello Raid
DR14 -6.06 dB -27.78 dB 2:02 07-Kiddie Kaper
DR17 -3.80 dB -31.55 dB 3:08 08-Street Attack / Casing the Station
DR13 -8.46 dB -30.47 dB 1:58 09-Over the Wall
DR13 -15.90 dB -33.99 dB 2:28 10-Night Entry
DR15 -9.73 dB -31.05 dB 2:55 11-Double Wax Job
DR12 -15.06 dB -33.05 dB 1:12 12-The Tombstone
DR12 -8.16 dB -25.22 dB 0:41 13-Departure
DR12 -5.68 dB -23.85 dB 2:36 14-The Gold Arrives
DR15 -4.58 dB -29.08 dB 1:51 15-Torn Coat
DR13 -4.61 dB -24.60 dB 2:57 16-End Title
––––––––––––––––––––––––––––––––––––––––

Number of tracks: 16
Official DR value: DR13

Samplerate: 2822400 Hz / PCM Samplerate: 176400 Hz
Channels: 5
Bits per sample: 1
Bitrate: 14112 kbps
Codec: DST64
================================================================================

––––––––––––––––––––––––––––––––––––––––
Analyzed: Jerry Goldsmith / The Great Train Robbery
––––––––––––––––––––––––––––––––––––––––

DR Peak RMS Duration Track
––––––––––––––––––––––––––––––––––––––––
DR13 -6.59 dB -24.91 dB 2:34 01-Main Title
DR13 -10.45 dB -30.97 dB 1:48 02-Breakfast In Bed
DR13 -11.75 dB -31.50 dB 2:23 03-No Respectable Gentleman
DR14 -9.98 dB -30.11 dB 3:54 04-Clues
DR12 -13.49 dB -29.95 dB 2:41 05-Rotten Row
DR12 -7.38 dB -25.11 dB 0:51 06-The First Key / Bordello Raid
DR14 -7.39 dB -27.23 dB 2:02 07-Kiddie Kaper
DR17 -7.19 dB -31.05 dB 3:08 08-Street Attack / Casing the Station
DR13 -8.83 dB -30.06 dB 1:58 09-Over the Wall
DR13 -17.32 dB -33.78 dB 2:28 10-Night Entry
DR15 -10.89 dB -30.60 dB 2:55 11-Double Wax Job
DR12 -16.74 dB -32.82 dB 1:12 12-The Tombstone
DR11 -8.83 dB -24.79 dB 0:41 13-Departure
DR12 -6.75 dB -23.22 dB 2:36 14-The Gold Arrives
DR15 -7.33 dB -28.61 dB 1:51 15-Torn Coat
DR13 -6.05 dB -23.95 dB 2:57 16-End Title
––––––––––––––––––––––––––––––––––––––––

Number of tracks: 16
Official DR value: DR13

Samplerate: 2822400 Hz / PCM Samplerate: 176400 Hz
Channels: 2
Bits per sample: 1
Bitrate: 5645 kbps
Codec: DST64


Thanks to PhantomBlot!
Uncompressed SACD ISO size > 1,99 GB
>