The Kinks - The Remasters Collection (14x SACD 1971-1986) [2004-2006] PS3 ISO + Hi-Res FLAC {RE-UP}

Posted By: HDAtall
The Kinks - The Remasters Collection (14x SACD 1971-1986) [2004-2006] PS3 ISO + Hi-Res FLAC {RE-UP}

The Kinks - The Remasters Collection (14x SACD 1971-1986)
PS3 Rip | SACD ISO | DSD64 2.0 > 1-bit/2.8224 MHz | Full Scans included | 25,6 GB
FLAC (tracks) 24 bit/88,2 kHz | 2.0 Stereo | 13 hours 44 mins | Scans included | 17,3 GB
Includes 14 albums (12 Studio + 1 Live + 1 Compilation) | Remastered 2004-2006

Although they weren't as boldly innovative as the Beatles or as popular as the Rolling Stones or the Who, the Kinks were one of the most influential bands of the British Invasion. Like most bands of their era, the Kinks began as an R&B/blues outfit. Within four years, the band had become the most staunchly English of all their contemporaries, drawing heavily from British music hall and traditional pop, as well as incorporating elements of country, folk, and blues.


The Kinks - The Remasters Collection (14x SACD 1971-1986) [2004-2006] PS3 ISO + Hi-Res FLAC {RE-UP}

The Kinks - Muswell Hillbillies (1971) [Remastered 2004]
PS3 Rip | SACD ISO | DSD64 2.0 > 1-bit/2.8224 MHz | Scans included | 1,74 GB (2,07 GB)
SACD-ISO PS3 Rip to FLAC 2.0 | 24 bit / 88,2 kHz | 51:23 min | Scans included | 1,07 GB

Tracklist:

01. 20th Century Man
02. Acute Schizophrenia Paranoia Blues
03. Holiday
04. Skin & Bone
05. Alcohol
06. Complicated Life
07. Here Come the People in Grey
08. Have a Cuppa Tea
09. Holloway Jail
10. Oklahoma U.S.A.
11. Uncle Son
12. Muswell Hillbilly
13. Mountain Woman
14. Kentucky Moon

foobar2000 1.1.15 / Dynamic Range Meter 1.1.1

––––––––––––––––––––––––––––––––––––––––
Analyzed: The Kinks / Muswell Hillbillies
––––––––––––––––––––––––––––––––––––––––

DR Peak RMS Duration Track
––––––––––––––––––––––––––––––––––––––––
DR8 -5.68 dB -17.06 dB 5:54 01-20th Century Man
DR10 -5.64 dB -16.88 dB 3:30 02-Acute Schizophrenia Paranoia Blues
DR10 -5.82 dB -19.28 dB 2:39 03-Holiday
DR9 -6.23 dB -17.19 dB 3:38 04-Skin & Bone
DR13 -5.60 dB -20.07 dB 3:35 05-Alcohol
DR9 -5.67 dB -17.77 dB 4:01 06-Complicated Life
DR10 -5.60 dB -17.16 dB 3:45 07-Here Come the People in Grey
DR9 -5.53 dB -17.09 dB 3:44 08-Have a Cuppa Tea
DR10 -5.63 dB -17.62 dB 3:26 09-Holloway Jail
DR11 -6.65 dB -20.88 dB 2:37 10-Oklahoma U.S.A.
DR12 -6.31 dB -20.33 dB 2:32 11-Uncle Son
DR9 -5.68 dB -16.67 dB 4:58 12-Muswell Hillbilly
DR11 -6.66 dB -19.44 dB 3:07 13-Mountain Woman
DR12 -7.33 dB -21.77 dB 3:58 14-Kentucky Moon
––––––––––––––––––––––––––––––––––––––––

Number of tracks: 14
Official DR value: DR10

Samplerate: 2822400 Hz / PCM Samplerate: 88200 Hz
Channels: 2
Bits per sample: 24
Bitrate: 5645 kbps
Codec: DSD64



–––––––––––––––––––––––––––––––––––––––––––––––––––

The Kinks - The Remasters Collection (14x SACD 1971-1986) [2004-2006] PS3 ISO + Hi-Res FLAC {RE-UP}

The Kinks - Everybody's In Show-Biz (1972) [Remastered 2006]
PS3 Rip | ISO | SACD DST64 2.0 > 1-bit/2.8224 MHz | Scans included | 1,38 GB (1,27 GB)
SACD-ISO PS3 Rip to FLAC 2.0 | 24 bit / 88,2 kHz | 75:31 min | Scans included | 1,6 GB

Tracklist:

01. Here Comes Yet Another Day
02. Maximum Consumption
03. Unreal Reality
04. Hot Potatoes
05. Sitting In My Hotel
06. Motorway
07. You Don't Know My Name
08. Supersonic Rocket Ship
09. Loko A Little On The Sunnyside
10. Celluloid Heroes
11. Top Of The Pops
12. Brainwashed
13. Mr. Wonderful
14. Acute Schizophrenia Paranoia Blues
15. Holiday
16. Muswell Hillbilly
17. Alcohol
18. Banana Boat Song (Trad.)
19. Skin & Bone
20. Baby Face
21. Lola
22. Till The End Of The Day
23. She's Bought A Hat Like Princess Marina

foobar2000 1.1.15 / Dynamic Range Meter 1.1.1

––––––––––––––––––––––––––––––––––––––––
Analyzed: The Kinks / Everybody's In Show-Biz
––––––––––––––––––––––––––––––––––––––––

DR Peak RMS Duration Track
––––––––––––––––––––––––––––––––––––––––
DR11 -3.78 dB -16.68 dB 3:52 01-Here Comes Yet Another Day
DR13 -3.32 dB -17.74 dB 4:02 02-Maximum Consumption
DR11 -3.72 dB -17.50 dB 3:31 03-Unreal Reality
DR11 -3.78 dB -16.79 dB 3:25 04-Hot Potatoes
DR11 -3.83 dB -19.40 dB 3:20 05-Sitting In My Hotel
DR11 -3.66 dB -16.65 dB 3:28 06-Motorway
DR10 -3.68 dB -15.61 dB 2:34 07-You Don't Know My Name
DR12 -3.30 dB -18.65 dB 3:29 08-Supersonic Rocket Ship
DR14 -3.45 dB -19.32 dB 2:46 09-Loko A Little On The Sunnyside
DR10 -3.54 dB -17.18 dB 6:18 10-Unknown Album
DR11 -3.31 dB -16.96 dB 4:32 11-Unknown Album
DR11 -3.47 dB -16.49 dB 2:59 12-Unknown Album
DR11 -5.93 dB -22.63 dB 0:42 13-Unknown Album
DR11 -3.91 dB -16.83 dB 4:00 14-Unknown Album
DR11 -3.45 dB -18.80 dB 3:53 15-Unknown Album
DR10 -3.72 dB -16.28 dB 3:09 16-Unknown Album
DR11 -3.58 dB -17.67 dB 5:19 17-Unknown Album
DR12 -5.25 dB -22.28 dB 1:42 18-Unknown Album
DR11 -3.45 dB -16.91 dB 3:54 19-Unknown Album
DR11 -3.85 dB -17.81 dB 1:54 20-Unknown Album
DR12 -3.56 dB -19.15 dB 1:39 21-Unknown Album
DR10 -4.17 dB -17.61 dB 2:00 22-Unknown Album
DR10 -4.77 dB -18.28 dB 3:03 23-Unknown Album
––––––––––––––––––––––––––––––––––––––––

Number of tracks: 23
Official DR value: DR11

Samplerate: 2822400 Hz / PCM Samplerate: 88200 Hz
Channels: 2
Bits per sample: 24
Bitrate: 5645 kbps
Codec: DST64



–––––––––––––––––––––––––––––––––––––––––––––––––––

The Kinks - The Remasters Collection (14x SACD 1971-1986) [2004-2006] PS3 ISO + Hi-Res FLAC {RE-UP}

The Kinks - Preservation Act 1 (1973) [Remastered 2004]
PS3 Rip | SACD ISO | DSD64 2.0 > 1-bit/2.8224 MHz | Scans included | 1,59 GB (1,88 GB)
SACD-ISO PS3 Rip to FLAC 2.0 | 24 bit / 88,2 kHz | 46:35 min | Scans included | 1003 MB

Tracklist:

01. Preservation (single)
02. Morning Song
03. Daylight
04. Sweet Lady Genevieve
05. There's a Change in the Weather
06. Where Are They Now?
07. One of the Survivors
08. Cricket
09. Money & Corruption / I Am Your Man
10. Here Comes Flash
11. Sitting in the Midday Sun
12. Demolition
13. One of the Survivors (single edit)

foobar2000 1.1.15 / Dynamic Range Meter 1.1.1

––––––––––––––––––––––––––––––––––––––––
Analyzed: The Kinks / Preservation Act 1
––––––––––––––––––––––––––––––––––––––––

DR Peak RMS Duration Track
––––––––––––––––––––––––––––––––––––––––
DR9 -6.05 dB -16.46 dB 3:36 01-Preservation (single)
DR10 -7.11 dB -22.92 dB 2:00 02-Morning Song
DR9 -5.82 dB -17.39 dB 3:20 03-Daylight
DR11 -5.81 dB -17.93 dB 3:26 04-Sweet Lady Genevieve
DR10 -5.82 dB -18.17 dB 2:58 05-There's a Change in the Weather
DR11 -5.83 dB -19.30 dB 3:28 06-Where Are They Now?
DR9 -5.82 dB -16.38 dB 4:30 07-One of the Survivors
DR11 -5.82 dB -19.81 dB 2:56 08-Cricket
DR11 -5.82 dB -19.08 dB 6:01 09-Money & Corruption / I Am Your Man
DR10 -5.81 dB -17.39 dB 2:39 10-Here Comes Flash
DR10 -5.83 dB -18.75 dB 3:44 11-Sitting in the Midday Sun
DR9 -5.81 dB -17.87 dB 4:07 12-Demolition
DR9 -5.68 dB -16.23 dB 4:06 13-One of the Survivors (single edit)
––––––––––––––––––––––––––––––––––––––––

Number of tracks: 13
Official DR value: DR10

Samplerate: 2822400 Hz / PCM Samplerate: 88200 Hz
Channels: 2
Bits per sample: 24
Bitrate: 5645 kbps
Codec: DSD64



–––––––––––––––––––––––––––––––––––––––––––––––––––

The Kinks - The Remasters Collection (14x SACD 1971-1986) [2004-2006] PS3 ISO + Hi-Res FLAC {RE-UP}

The Kinks - Preservation Act 2 (1974) [Remastered 2004]
PS3 Rip | SACD ISO | DSD64 2.0 > 1-bit/2.8224 MHz | Scans included | 2,58 GB (3,08 GB)
SACD-ISO PS3 Rip to FLAC 2.0 | 24 bit / 88,2 kHz | 77:04 min | Scans included | 1,62 GB

Tracklist:

01. Announcement
02. Introduction to Solution
03. When a Solution Comes
04. Money Talks
05. Announcement
06. Shepherds of the Nation
07. Scum of the Earth
08. Second-Hand Car Spiv
09. He's Evil
10. Mirror of Love
11. Announcement
12. Nobody Gives
13. Oh Where Oh Where is Love?
14. Flash's Dream (The Final Elbow)
15. Flash's Confession
16. Nothing Lasts Forever
17. Announcement
18. Artificial Man
19. Scrapheap City
20. Announcement
21. Salvation Road
22. Mirror of Love
23. Slum Kids (Take 1)

foobar2000 1.1.15 / Dynamic Range Meter 1.1.1

––––––––––––––––––––––––––––––––––––––––
Analyzed: The Kinks / Preservation Act 2
––––––––––––––––––––––––––––––––––––––––

DR Peak RMS Duration Track
––––––––––––––––––––––––––––––––––––––––
DR13 -6.96 dB -21.92 dB 0:41 01-Announcement
DR10 -5.84 dB -17.49 dB 2:43 02-Introduction to Solution
DR9 -5.82 dB -16.90 dB 3:40 03-When a Solution Comes
DR10 -5.82 dB -17.40 dB 3:44 04-Money Talks
DR10 -5.85 dB -18.84 dB 0:55 05-Announcement
DR10 -5.79 dB -18.76 dB 4:18 06-Shepherds of the Nation
DR9 -5.81 dB -16.64 dB 2:45 07-Scum of the Earth
DR10 -5.83 dB -17.11 dB 4:01 08-Second-Hand Car Spiv
DR9 -5.79 dB -16.57 dB 4:25 09-He's Evil
DR10 -5.82 dB -17.12 dB 3:27 10-Mirror of Love
DR13 -6.89 dB -22.70 dB 0:34 11-Announcement
DR10 -5.83 dB -18.04 dB 6:33 12-Nobody Gives
DR10 -5.83 dB -18.18 dB 3:40 13-Oh Where Oh Where is Love?
DR9 -5.82 dB -19.40 dB 4:17 14-Flash's Dream (The Final Elbow)
DR9 -5.82 dB -17.03 dB 4:07 15-Flash's Confession
DR9 -5.82 dB -17.84 dB 3:42 16-Nothing Lasts Forever
DR13 -7.81 dB -23.44 dB 0:20 17-Announcement
DR9 -5.82 dB -16.45 dB 5:30 18-Artificial Man
DR9 -5.83 dB -17.43 dB 3:16 19-Scrapheap City
DR14 -6.82 dB -22.95 dB 1:06 20-Announcement
DR9 -5.82 dB -16.70 dB 3:21 21-Salvation Road
DR9 -5.64 dB -16.62 dB 3:29 22-Mirror of Love
DR10 -5.97 dB -17.87 dB 6:28 23-Slum Kids (Take 1)
––––––––––––––––––––––––––––––––––––––––

Number of tracks: 23
Official DR value: DR10

Samplerate: 2822400 Hz / PCM Samplerate: 88200 Hz
Channels: 2
Bits per sample: 24
Bitrate: 5645 kbps
Codec: DSD64



–––––––––––––––––––––––––––––––––––––––––––––––––––

The Kinks - The Remasters Collection (14x SACD 1971-1986) [2004-2006] PS3 ISO + Hi-Res FLAC {RE-UP}

The Kinks - The Kinks Present: Schoolboys in Disgrace (1975) [Remastered 2004]
PS3 Rip | SACD ISO | DSD64 2.0 > 1-bit/2.8224 MHz | Scans included | 1,24 GB (1,46 GB)
SACD-ISO PS3 Rip to FLAC 2.0 | 24 bit / 88,2 kHz | 36:18 min | Scans included | 768 MB

Tracklist:

01. Schooldays
02. Jack the Idiot Dunce
03. Education
04. The First Time We Fall in Love
05. I'm in Disgrace
06. Headmaster
07. The Hard Way
08. The Last Assembly
09. No More Looking Back
10. Finale

foobar2000 1.1.15 / Dynamic Range Meter 1.1.1

––––––––––––––––––––––––––––––––––––––––
Analyzed: The Kinks / Schoolboys in Disgrace
––––––––––––––––––––––––––––––––––––––––

DR Peak RMS Duration Track
––––––––––––––––––––––––––––––––––––––––
DR8 -6.31 dB -16.28 dB 3:31 01-Schooldays
DR8 -6.23 dB -15.79 dB 3:20 02-Jack the Idiot Dunce
DR8 -6.23 dB -16.66 dB 7:07 03-Education
DR8 -6.11 dB -16.01 dB 4:01 04-The First Time We Fall in Love
DR8 -6.14 dB -16.16 dB 3:22 05-I'm in Disgrace
DR8 -6.28 dB -16.49 dB 4:03 06-Headmaster
DR9 -6.08 dB -16.32 dB 2:35 07-The Hard Way
DR9 -6.12 dB -17.11 dB 2:46 08-The Last Assembly
DR8 -6.05 dB -16.11 dB 4:27 09-No More Looking Back
DR8 -6.31 dB -16.03 dB 1:04 10-Finale
––––––––––––––––––––––––––––––––––––––––

Number of tracks: 10
Official DR value: DR8

Samplerate: 2822400 Hz / PCM Samplerate: 88200 Hz
Channels: 2
Bits per sample: 24
Bitrate: 5645 kbps
Codec: DSD64



–––––––––––––––––––––––––––––––––––––––––––––––––––

The Kinks - The Remasters Collection (14x SACD 1971-1986) [2004-2006] PS3 ISO + Hi-Res FLAC {RE-UP}

The Kinks - The Kinks Present: A Soap Opera (1975) [Remastered 2004]
PS3 Rip | SACD ISO | DSD64 2.0 > 1-bit/2.8224 MHz | Scans included | 1,79 GB (2,12 GB)
SACD-ISO PS3 Rip to FLAC 2.0 | 24 bit / 88,2 kHz | 52:37 min | Scans included | 1,1 GB

Tracklist:

01. Everybody's a Star (Starmaker)
02. Ordinary People
03. Rush Hour Blues
04. Nine to Five
05. When Work is Over
06. Have Another Drink
07. Underneath the Neon Sign
08. Holiday Romance
09. You Make It All Worthwhile
10. Ducks on the Wall
11. (A) Face in the Crowd
12. You Can't Stop the Music
13. Everybody's a Star (Starmaker) (mono mix)
14. Ordinary People (live)
15. You Make It All Worthwhile (live)
16. Underneath the Neon Sign (live)

foobar2000 1.1.15 / Dynamic Range Meter 1.1.1

––––––––––––––––––––––––––––––––––––––––
Analyzed: The Kinks / Soap Opera
––––––––––––––––––––––––––––––––––––––––

DR Peak RMS Duration Track
––––––––––––––––––––––––––––––––––––––––
DR8 -5.73 dB -15.33 dB 2:57 01-Everybody's a Star (Starmaker)
DR9 -5.75 dB -16.50 dB 3:49 02-Ordinary People
DR8 -5.74 dB -15.91 dB 4:27 03-Rush Hour Blues
DR9 -5.75 dB -17.01 dB 1:48 04-Nine to Five
DR8 -5.74 dB -14.77 dB 2:06 05-When Work is Over
DR9 -5.73 dB -15.81 dB 2:41 06-Have Another Drink
DR10 -5.55 dB -17.72 dB 3:54 07-Underneath the Neon Sign
DR9 -5.67 dB -16.30 dB 3:10 08-Holiday Romance
DR9 -5.75 dB -17.97 dB 3:49 09-You Make It All Worthwhile
DR9 -5.73 dB -16.17 dB 3:20 10-Ducks on the Wall
DR9 -5.73 dB -17.60 dB 2:17 11-(A) Face in the Crowd
DR8 -5.75 dB -15.52 dB 3:14 12-You Can't Stop the Music
DR10 -5.74 dB -17.25 dB 2:55 13-Everybody's a Star (Starmaker) (mono mix)
DR10 -5.53 dB -17.36 dB 3:45 14-Ordinary People (live)
DR9 -5.56 dB -19.34 dB 4:18 15-You Make It All Worthwhile (live)
DR10 -5.53 dB -17.79 dB 4:07 16-Underneath the Neon Sign (live)
––––––––––––––––––––––––––––––––––––––––

Number of tracks: 16
Official DR value: DR9

Samplerate: 2822400 Hz / PCM Samplerate: 88200 Hz
Channels: 2
Bits per sample: 24
Bitrate: 5645 kbps
Codec: DSD64



–––––––––––––––––––––––––––––––––––––––––––––––––––

The Kinks - The Remasters Collection (14x SACD 1971-1986) [2004-2006] PS3 ISO + Hi-Res FLAC {RE-UP}

The Kinks - Sleepwalker (1977) [Remastered 2004]
PS3 Rip | SACD ISO | DSD64 2.0 > 1-bit/2.8224 MHz | Scans included | 2,04 GB (2,41 GB)
SACD-ISO PS3 Rip to FLAC 2.0 | 24 bit / 88,2 kHz | 59:54 min | Scans included | 1,23 GB

Tracklist:

01. Life on the Road
02. Mr. Big Man
03. Sleepwalker
04. Brother
05. Juke Box Music
06. Sleepless Night
07. Stormy Sky
08. Full Moon
09. Life Goes On
10. Artificial Light
11. Prince of the Punks
12. The Poseur
13. On the Outside (1977 mix)
14. On the Outside (1994 mix)

foobar2000 1.1.15 / Dynamic Range Meter 1.1.1

––––––––––––––––––––––––––––––––––––––––
Analyzed: The Kinks / Sleepwalker
––––––––––––––––––––––––––––––––––––––––

DR Peak RMS Duration Track
––––––––––––––––––––––––––––––––––––––––
DR8 -5.72 dB -16.44 dB 5:02 01-Life on the Road
DR8 -5.74 dB -15.91 dB 3:48 02-Mr. Big Man
DR8 -5.73 dB -15.81 dB 4:03 03-Sleepwalker
DR7 -5.72 dB -15.59 dB 5:29 04-Brother
DR8 -5.70 dB -15.98 dB 5:31 05-Juke Box Music
DR7 -5.64 dB -14.54 dB 3:16 06-Sleepless Night
DR7 -5.55 dB -15.28 dB 3:57 07-Stormy Sky
DR7 -5.71 dB -15.89 dB 3:50 08-Full Moon
DR8 -5.70 dB -15.87 dB 5:01 09-Life Goes On
DR8 -5.51 dB -15.42 dB 3:24 10-Artificial Light
DR10 -5.46 dB -16.80 dB 3:17 11-Prince of the Punks
DR8 -5.53 dB -15.48 dB 2:53 12-The Poseur
DR10 -5.39 dB -17.24 dB 5:04 13-On the Outside (1977 mix)
DR10 -5.51 dB -16.92 dB 5:18 14-On the Outside (1994 mix)
––––––––––––––––––––––––––––––––––––––––

Number of tracks: 14
Official DR value: DR8

Samplerate: 2822400 Hz / PCM Samplerate: 88200 Hz
Channels: 2
Bits per sample: 24
Bitrate: 5645 kbps
Codec: DSD64



–––––––––––––––––––––––––––––––––––––––––––––––––––

The Kinks - The Remasters Collection (14x SACD 1971-1986) [2004-2006] PS3 ISO + Hi-Res FLAC {RE-UP}

The Kinks - Misfits (1978) [Remastered 2004]
PS3 Rip | SACD ISO | DSD64 2.0 > 1-bit/2.8224 MHz | Scans included | 1,87 GB (2,23 GB)
SACD-ISO PS3 Rip to FLAC 2.0 | 24 bit / 88,2 kHz | 55:18 min | Scans included | 1,15 GB

Tracklist:

01. Misfits
02. Hay Fever
03. Black Messiah
04. A Rock 'n' Roll Fantasy
05. In a Foreign Land
06. Permanent Waves
07. Live Life (UK Album version)
08. Out of the Wardrobe
09. Trust Your Heart
10. Get Up
11. Black Messiah (Single remix)
12. Father Christmas
13. A Rock 'n' Roll Fantasy (US single edit)
14. Live Life (US single mix)

foobar2000 1.1.15 / Dynamic Range Meter 1.1.1

––––––––––––––––––––––––––––––––––––––––
Analyzed: The Kinks / Misfits
––––––––––––––––––––––––––––––––––––––––

DR Peak RMS Duration Track
––––––––––––––––––––––––––––––––––––––––
DR9 -4.96 dB -16.86 dB 4:41 01-Misfits
DR9 -5.19 dB -15.75 dB 3:33 02-Hay Fever
DR9 -5.19 dB -16.37 dB 4:08 03-Black Messiah
DR9 -5.00 dB -16.24 dB 4:59 04-A Rock 'n' Roll Fantasy
DR8 -5.08 dB -15.62 dB 3:03 05-In a Foreign Land
DR8 -4.91 dB -15.38 dB 3:48 06-Permanent Waves
DR11 -5.08 dB -16.78 dB 4:48 07-Live Life (UK Album version)
DR11 -4.86 dB -18.29 dB 3:36 08-Out of the Wardrobe
DR10 -4.98 dB -17.53 dB 4:11 09-Trust Your Heart
DR10 -5.02 dB -17.06 dB 3:22 10-Get Up
DR12 -5.09 dB -18.23 dB 3:36 11-Black Messiah (single remix)
DR9 -5.05 dB -16.07 dB 3:41 12-Father Christmas
DR9 -5.00 dB -16.20 dB 4:01 13-A Rock 'n' Roll Fantasy (US single edit)
DR9 -5.27 dB -15.99 dB 3:49 14-Live Life (US single mix)
––––––––––––––––––––––––––––––––––––––––

Number of tracks: 14
Official DR value: DR9

Samplerate: 2822400 Hz / PCM Samplerate: 88200 Hz
Channels: 2
Bits per sample: 24
Bitrate: 5645 kbps
Codec: DSD64



–––––––––––––––––––––––––––––––––––––––––––––––––––

The Kinks - The Remasters Collection (14x SACD 1971-1986) [2004-2006] PS3 ISO + Hi-Res FLAC {RE-UP}

The Kinks - Low Budget (1979) [Remastered 2006]
PS3 Rip | ISO | SACD DST64 2.0 > 1-bit/2.8224 MHz | Scans included | 1,15 GB (1,06 GB)
SACD-ISO PS3 Rip to FLAC 2.0 | 24 bit / 88,2 kHz | 59:17 min | Scans included | 1,25 GB

Tracklist:

01. Attitude
02. Catch Me Now I'm Falling
03. Pressure
04. National Health
05. (Wish I Could Fly Like) Superman
06. Low Budget
07. In A Space
08. Little Bit Of Emotion
09. A Gallon Of Gas
10. Misery
11. Moving Pictures
12. A Gallon Of Gas (US Single Extended Edit)
13. Catch Me Now I'm Falling (Original Extended Edit)
14. (Wish I Could Fly Like) Superman (Disco Mix Extended Edit)

foobar2000 1.1.15 / Dynamic Range Meter 1.1.1

––––––––––––––––––––––––––––––––––––––––
Analyzed: The Kinks / Low Budget
––––––––––––––––––––––––––––––––––––––––

DR Peak RMS Duration Track
––––––––––––––––––––––––––––––––––––––––
DR8 -4.33 dB -13.89 dB 3:48 01-Attitude
DR9 -3.86 dB -14.90 dB 5:58 02-Catch Me Now I'm Falling
DR6 -3.51 dB -12.00 dB 2:26 03-Pressure
DR8 -3.87 dB -14.79 dB 4:03 04-National Health
DR7 -3.42 dB -12.59 dB 3:35 05-(Wish I Could Fly Like) Superman
DR9 -3.66 dB -13.99 dB 3:48 06-Low Budget
DR9 -3.64 dB -15.23 dB 3:45 07-In A Space
DR11 -3.90 dB -17.45 dB 4:51 08-Little Bit Of Emotion
DR9 -4.41 dB -15.06 dB 3:49 09-A Gallon Of Gas
DR7 -3.92 dB -12.71 dB 2:57 10-Misery
DR9 -4.21 dB -15.98 dB 3:42 11-Moving Pictures
DR11 -4.32 dB -17.35 dB 3:49 12-A Gallon Of Gas (US Single Extended Edit)
DR11 -4.98 dB -17.46 dB 6:47 13-Catch Me Now I'm Falling (Original Extended Edit)
DR11 -4.22 dB -16.39 dB 5:57 14-(Wish I Could Fly Like) Superman (Disco Mix Extended Edit)
––––––––––––––––––––––––––––––––––––––––

Number of tracks: 14
Official DR value: DR9

Samplerate: 2822400 Hz / PCM Samplerate: 88200 Hz
Channels: 2
Bits per sample: 24
Bitrate: 5645 kbps
Codec: DST64



–––––––––––––––––––––––––––––––––––––––––––––––––––

The Kinks - The Remasters Collection (14x SACD 1971-1986) [2004-2006] PS3 ISO + Hi-Res FLAC {RE-UP}

The Kinks - One For The Road (1980) [Remastered 2004]
PS3 Rip | SACD ISO | DSD64 2.0 > 1-bit/2.8224 MHz | Scans included | 2,62 GB (3,11 GB)
SACD-ISO PS3 Rip to FLAC 2.0 | 24 bit / 88,2 kHz | 77:40 min | Scans included | 1,61 GB

Tracklist:

01. Opening
02. The Hard Way
03. Catch Me Now I'm Falling
04. Where Have All The Good Times Gone
05. Introduction to Lola
06. Lola
07. Pressure
08. All Day and All of the Night
09. 20th Century Man
10. Misfits
11. Prince of the Punks
12. Stop Your Sobbing
13. Low Budget
14. Attitude
15. (Wish I Could Fly Like) Superman
16. National Health
17. Till the End of the Day
18. Celluloid Heroes
19. You Really Got Me
20. Victoria
21. David Watts

foobar2000 1.1.15 / Dynamic Range Meter 1.1.1

––––––––––––––––––––––––––––––––––––––––
Analyzed: The Kinks / One For The Road
––––––––––––––––––––––––––––––––––––––––

DR Peak RMS Duration Track
––––––––––––––––––––––––––––––––––––––––
DR11 -5.07 dB -17.85 dB 1:43 01-Opening
DR10 -5.15 dB -15.98 dB 2:42 02-The Hard Way
DR10 -5.05 dB -16.85 dB 4:50 03-Catch Me Now I'm Falling
DR9 -5.15 dB -14.98 dB 2:16 04-Where Have All The Good Times Gone
DR14 -5.53 dB -23.27 dB 0:44 05-Introduction to Lola
DR10 -5.16 dB -17.49 dB 4:58 06-Lola
DR10 -5.01 dB -16.63 dB 1:32 07-Pressure
DR9 -5.18 dB -15.68 dB 3:45 08-All Day and All of the Night
DR9 -5.16 dB -16.70 dB 6:17 09-20th Century Man
DR12 -5.13 dB -20.10 dB 3:38 10-Misfits
DR11 -5.02 dB -17.17 dB 3:49 11-Prince of the Punks
DR11 -5.19 dB -17.56 dB 2:31 12-Stop Your Sobbing
DR9 -5.16 dB -16.40 dB 6:05 13-Low Budget
DR9 -5.19 dB -15.24 dB 3:53 14-Attitude
DR10 -5.13 dB -16.65 dB 6:28 15-(Wish I Could Fly Like) Superman
DR10 -5.15 dB -16.51 dB 4:08 16-National Health
DR9 -5.17 dB -15.99 dB 2:43 17-Till the End of the Day
DR10 -5.11 dB -17.58 dB 7:23 18-Celluloid Heroes
DR9 -5.04 dB -15.20 dB 3:35 19-You Really Got Me
DR9 -5.08 dB -15.21 dB 2:34 20-Victoria
DR10 -5.08 dB -16.91 dB 2:05 21-David Watts
––––––––––––––––––––––––––––––––––––––––

Number of tracks: 21
Official DR value: DR10

Samplerate: 2822400 Hz / PCM Samplerate: 88200 Hz
Channels: 2
Bits per sample: 24
Bitrate: 5645 kbps
Codec: DSD64



–––––––––––––––––––––––––––––––––––––––––––––––––––

The Kinks - The Remasters Collection (14x SACD 1971-1986) [2004-2006] PS3 ISO + Hi-Res FLAC {RE-UP}

The Kinks - Give The People What They Want (1981) [Remastered 2004]
PS3 Rip | SACD ISO | DSD64 2.0 > 1-bit/2.8224 MHz | Scans included | 1,39 GB (1,65 GB)
SACD-ISO PS3 Rip to FLAC 2.0 | 24 bit / 88,2 kHz | 41:05 min | Scans included | 904 MB

Tracklist:

01. Around the Dial
02. Give The People What They Want
03. Killer's Eyes
04. Predictable
05. Add It Up
06. Destroyer
07. Yo-Yo
08. Back to Front
09. Art Lover
10. A Little Bit of Abuse
11. Better Things

foobar2000 1.1.15 / Dynamic Range Meter 1.1.1

––––––––––––––––––––––––––––––––––––––––
Analyzed: The Kinks / Give The People What They Want
––––––––––––––––––––––––––––––––––––––––

DR Peak RMS Duration Track
––––––––––––––––––––––––––––––––––––––––
DR9 -5.72 dB -16.45 dB 4:46 01-Around the Dial
DR9 -5.68 dB -16.03 dB 3:45 02-Give The People What They Want
DR10 -5.70 dB -17.01 dB 4:38 03-Killer's Eyes
DR10 -5.74 dB -16.55 dB 3:21 04-Predictable
DR9 -5.71 dB -16.50 dB 3:14 05-Add It Up
DR9 -5.73 dB -17.02 dB 3:46 06-Destroyer
DR9 -5.71 dB -16.92 dB 4:10 07-Yo-Yo
DR9 -5.72 dB -15.61 dB 3:16 08-Back to Front
DR11 -6.46 dB -19.33 dB 3:22 09-Art Lover
DR9 -5.71 dB -16.97 dB 3:46 10-A Little Bit of Abuse
DR9 -5.72 dB -16.40 dB 3:01 11-Better Things
––––––––––––––––––––––––––––––––––––––––

Number of tracks: 11
Official DR value: DR9

Samplerate: 2822400 Hz / PCM Samplerate: 88200 Hz
Channels: 2
Bits per sample: 24
Bitrate: 5645 kbps
Codec: DSD64



–––––––––––––––––––––––––––––––––––––––––––––––––––

The Kinks - The Remasters Collection (14x SACD 1971-1986) [2004-2006] PS3 ISO + Hi-Res FLAC {RE-UP}

The Kinks - State Of Confusion (1983) [Remastered 2004]
PS3 Rip | SACD ISO | DSD64 2.0 > 1-bit/2.8224 MHz | Scans included | 2,04 GB (2,43 GB)
SACD-ISO PS3 Rip to FLAC 2.0 | 24 bit / 88,2 kHz | 60:14 min | Scans included | 1,26 GB

Tracklist:

01. State of Confusion
02. Definite Maybe
03. Labour of Love
04. Come Dancing
05. Property
06. Don't Forget to Dance
07. Young Conservatives
08. Heart of Gold
09. Cliches of the World (B Movie)
10. Bernadette
11. Don't Forget to Dance (original extended edit)
12. Once a Thief
13. Long Distance
14. Noise

foobar2000 1.1.15 / Dynamic Range Meter 1.1.1

––––––––––––––––––––––––––––––––––––––––
Analyzed: The Kinks / State Of Confusion
––––––––––––––––––––––––––––––––––––––––

DR Peak RMS Duration Track
––––––––––––––––––––––––––––––––––––––––
DR9 -5.81 dB -16.10 dB 3:42 01-State of Confusion
DR10 -5.83 dB -17.07 dB 4:21 02-Definite Maybe
DR8 -5.52 dB -15.49 dB 3:54 03-Labour of Love
DR10 -5.43 dB -17.37 dB 3:54 04-Come Dancing
DR10 -5.81 dB -18.21 dB 4:19 05-Property
DR10 -5.82 dB -17.15 dB 4:37 06-Don't Forget to Dance
DR10 -5.52 dB -16.95 dB 4:00 07-Young Conservatives
DR11 -5.51 dB -17.53 dB 4:01 08-Heart of Gold
DR10 -5.82 dB -17.57 dB 4:51 09-Cliches of the World (B Movie)
DR10 -5.54 dB -16.29 dB 3:28 10-Bernadette
DR8 -5.46 dB -15.08 dB 5:06 11-Don't Forget to Dance (original extended edit)
DR8 -5.81 dB -15.40 dB 4:01 12-Once a Thief
DR11 -5.82 dB -17.70 dB 5:22 13-Long Distance
DR9 -5.64 dB -16.48 dB 4:37 14-Noise
––––––––––––––––––––––––––––––––––––––––

Number of tracks: 14
Official DR value: DR10

Samplerate: 2822400 Hz / PCM Samplerate: 88200 Hz
Channels: 2
Bits per sample: 24
Bitrate: 5645 kbps
Codec: DSD64



–––––––––––––––––––––––––––––––––––––––––––––––––––

The Kinks - The Remasters Collection (14x SACD 1971-1986) [2004-2006] PS3 ISO + Hi-Res FLAC {RE-UP}

The Kinks - Word Of Mouth (1984) [Remastered 2004]
PS3 Rip | SACD ISO | DSD64 2.0 > 1-bit/2.8224 MHz | Scans included | 1,66 GB (2,13 GB)
SACD-ISO PS3 Rip to FLAC 2.0 | 24 bit / 88,2 kHz | 53:17 min | Scans included | 1,15 GB

Tracklist:

01. Do It Again
02. Word Of Mouth
03. Good Day
04. Living On A Thin Line
05. Sold Me Out
06. Massive Reductions
07. Guilty
08. Too Hot
09. Missing Persons
10. Summer's Gone
11. Going Solo
12. Good Day (Extended Edit)
13. Summer's Gone (Extended Edit)

foobar2000 1.1.15 / Dynamic Range Meter 1.1.1

––––––––––––––––––––––––––––––––––––––––
Analyzed: The Kinks / Word Of Mouth
––––––––––––––––––––––––––––––––––––––––

DR Peak RMS Duration Track
––––––––––––––––––––––––––––––––––––––––
DR9 -5.35 dB -15.71 dB 4:11 01-Do It Again
DR10 -5.20 dB -16.01 dB 3:51 02-Word Of Mouth
DR9 -5.42 dB -16.80 dB 4:36 03-Good Day
DR9 -5.35 dB -16.41 dB 4:15 04-Living On A Thin Line
DR9 -5.37 dB -15.06 dB 3:45 05-Sold Me Out
DR10 -5.35 dB -17.32 dB 3:16 06-Massive Reductions
DR8 -5.46 dB -15.67 dB 4:13 07-Guilty
DR9 -5.35 dB -15.96 dB 4:09 08-Too Hot
DR10 -5.42 dB -20.50 dB 2:53 09-Missing Persons
DR9 -6.17 dB -16.77 dB 3:53 10-Summer's Gone
DR9 -5.86 dB -16.50 dB 3:55 11-Going Solo
DR9 -6.41 dB -18.04 dB 5:31 12-Good Day (Extended Edit)
DR8 -6.50 dB -16.63 dB 4:51 13-Summer's Gone (Extended Edit)
––––––––––––––––––––––––––––––––––––––––

Number of tracks: 13
Official DR value: DR9

Samplerate: 2822400 Hz / PCM Samplerate: 88200 Hz
Channels: 2
Bits per sample: 24
Bitrate: 5645 kbps
Codec: DSD64



–––––––––––––––––––––––––––––––––––––––––––––––––––

The Kinks - The Remasters Collection (14x SACD 1971-1986) [2004-2006] PS3 ISO + Hi-Res FLAC {RE-UP}

The Kinks - Come Dancing With The Kinks (1986) [Remastered 2004]
PS3 Rip | SACD ISO | DSD64 2.0 > 1-bit/2.8224 MHz | Scans included | 2,45 GB (3,12 GB)
SACD-ISO PS3 Rip to FLAC 2.0 | 24 bit / 88,2 kHz | 77:34 min | Scans included | 1,63 GB

Tracklist:

01. Come Dancing
02. Low Budget
03. Catch Me Now I'm Falling
04. A Gallon of Gas
05. Wish I Could Fly Like Superman
06. Sleepwalker
07. Full Moon
08. Misfits
09. A Rock 'n' Roll Fantasy
10. Do It Again
11. Better Things
12. Lola (live)
13. You Really Got Me (live)
14. Good Day
15. Living on a Thin Line
16. Destroyer
17. Don't Forget to Dance
18. Father Christmas

foobar2000 1.1.15 / Dynamic Range Meter 1.1.1

––––––––––––––––––––––––––––––––––––––––
Analyzed: The Kinks / Come Dancing With The Kinks
––––––––––––––––––––––––––––––––––––––––

DR Peak RMS Duration Track
––––––––––––––––––––––––––––––––––––––––
DR10 -5.05 dB -16.99 dB 3:54 01-Come Dancing
DR9 -6.76 dB -16.99 dB 3:49 02-Low Budget
DR9 -5.92 dB -16.90 dB 5:58 03-Catch Me Now I'm Falling
DR9 -5.38 dB -16.06 dB 3:49 04-A Gallon of Gas
DR11 -4.68 dB -16.89 dB 5:58 05-Wish I Could Fly Like Superman
DR8 -6.58 dB -16.77 dB 4:03 06-Sleepwalker
DR7 -5.65 dB -15.89 dB 3:50 07-Full Moon
DR9 -4.98 dB -16.86 dB 4:40 08-Misfits
DR9 -5.10 dB -16.24 dB 5:00 09-A Rock 'n' Roll Fantasy
DR9 -5.28 dB -15.71 dB 4:11 10-Do It Again
DR8 -5.15 dB -14.92 dB 2:59 11-Better Things
DR10 -4.24 dB -16.37 dB 4:48 12-Lola (live)
DR9 -4.07 dB -14.27 dB 3:38 13-You Really Got Me (live)
DR9 -5.44 dB -16.80 dB 4:36 14-Good Day
DR9 -5.32 dB -16.41 dB 4:15 15-Living on a Thin Line
DR9 -4.71 dB -16.02 dB 3:46 16-Destroyer
DR10 -4.68 dB -16.65 dB 4:37 17-Don't Forget to Dance
DR9 -4.60 dB -15.62 dB 3:43 18-Father Christmas
––––––––––––––––––––––––––––––––––––––––

Number of tracks: 18
Official DR value: DR9

Samplerate: 2822400 Hz / PCM Samplerate: 88200 Hz
Channels: 2
Bits per sample: 24
Bitrate: 5645 kbps
Codec: DSD64


Thanks to PS³SACD!

The Kinks' Greatest: Celluloid Heroes (1976) [SACD 2007]


If you want leave some comment - login at the mirror > http://old.avxhome.se/hraphile