The Pretenders - Get Close (1986/2013) [Official Digital Download 24-bit/192kHz]

Posted By: HDV
The Pretenders - Get Close (1986/2013) [Official Digital Download 24-bit/192kHz]

The Pretenders - Get Close (1986/2013)
FLAC (tracks) 24-bit/192 kHz | Time - 45:03 minutes | 1,74 GB
FLAC (tracks) 24 bit/96 kHz | Time - 47:09 minutes | 993 MB
Studio Master, Official Digital Download | Artwork: Front cover

"Get Close" is the fourth album by rock group The Pretenders, released in 1986. The album contains the band's two biggest Mainstream Rock Tracks chart hits, "Don't Get Me Wrong" and "My Baby", both of which reached #1.

In the first edition of the Pretenders, Chrissie Hynde was a smart and streetwise rock & roller with just enough maturity to make something of what life had shown her by her mid-twenties – and she had the rough-and-tumble band to match for her first two albums. The second version of the group cast her as an unwitting but unbowed survivor, determined to move on and keep rocking despite the deaths of two of her bandmates, and the tough, no-nonsense approach of her new collaborators on Learning to Crawl reflected her attitude. Released in 1986, Get Close marked the debut of the Pretenders' Mark Three, and on this album listeners are introduced to Chrissie Hynde, Mature Professional Musician with a band to match. Get Close is never less than solid as a work of craft, and guitarist Robbie McIntosh, drummer Blair Cunningham, and bassist T.M. Stevens deliver tight and emphatic performances throughout, but they also sound like what they are – journeymen musicians who bring their chops to their projects while leaving their personalities at the door. While Hynde always dominated the Pretenders, by this time it was obvious that this was fully her show, and if she felt less like rocking and more like exploring her emotions and thoughts about parenthood on midtempo pop tunes, no one in the group was going to prod her into doing otherwise; the presence of a large number of additional session players further buffs away any of Get Close's potential sharp edges. Despite all this, Hynde's voice is in great form throughout, and when she gets her dander up, she still has plenty to say and good ways to say it; "How Much Did You Get for Your Soul?" is a gleefully venomous attack on the musically unscrupulous; "Don't Get Me Wrong" is a superb pop tune and a deserved hit single; and the Motown-flavored "I Remember You" and the moody "Chill Factor" suggest she'd been learning a lot from her old soul singles. But after three great albums from the Pretenders, Get Close sounded good but not especially striking, and its hit-and-miss approach, with a few great songs surrounded by lesser material, was something Hynde's fans would find themselves getting used to over the group's next few releases.

Tracklist:

01 - My Baby
02 - When I Change My Life
03 - Light Of The Moon
04 - Dance
05 - Tradition Of Love
06 - Don't Get Me Wrong
07 - I Remember You
08 - How Much Did You Get For Your Soul?
09 - Chill Factor
10 - Hymn To Her
11 - Room Full Of Mirrors

Analyzed: Pretenders / Get Close
––––––––––––––––––––––––––––––––––––––––

DR Peak RMS Duration Track
––––––––––––––––––––––––––––––––––––––––
DR14 -0.87 dB -17.01 dB 4:07 01-My Baby
DR14 -0.59 dB -16.55 dB 3:38 02-When I Change My Life
DR15 0.00 dB -16.34 dB 3:57 03-Light Of The Moon
DR13 -0.91 dB -16.37 dB 4:45 04-Dance
DR14 -0.10 dB -16.85 dB 5:24 05-Tradition Of Love
DR13 -3.39 dB -18.49 dB 3:46 06-Don't Get Me Wrong
DR13 -4.24 dB -20.11 dB 2:39 07-I Remember You
DR15 -1.36 dB -19.53 dB 3:48 08-How Much Did You Get For Your Soul?
DR14 -1.64 dB -18.41 dB 3:27 09-Chill Factor
DR14 -3.85 dB -20.90 dB 4:57 10-Hymn To Her
DR14 -4.14 dB -20.08 dB 4:36 11-Room Full Of Mirrors
––––––––––––––––––––––––––––––––––––––––

Number of tracks: 11
Official DR value: DR14

Samplerate: 192000 Hz
Channels: 2
Bits per sample: 24
Bitrate: 5189 kbps
Codec: FLAC
================================================================================


Thanks to the Original customer!