Tags
Language
Tags
June 2024
Su Mo Tu We Th Fr Sa
26 27 28 29 30 31 1
2 3 4 5 6 7 8
9 10 11 12 13 14 15
16 17 18 19 20 21 22
23 24 25 26 27 28 29
30 1 2 3 4 5 6

The Rolling Stones - Tattoo You (1981) [Japanese Limited SHM-SACD 2011] PS3 ISO + DSD64 + Hi-Res FLAC

Posted By: HDAtall
The Rolling Stones - Tattoo You (1981) [Japanese Limited SHM-SACD 2011] PS3 ISO + DSD64 + Hi-Res FLAC

The Rolling Stones - Tattoo You (1981) [Japanese SHM-SACD 2011]
PS3 Rip | SACD ISO | DSD64 2.0 > 1-bit/2.8224 MHz | 42:49 minutes | Scans included | 1,28 GB
or DSD64 2.0 (from SACD-ISO to Tracks.dsf) > 1-bit/2.8224 MHz | Full Scans included | 1,14 GB
or FLAC (carefully converted & encoded to tracks) 24bit/96 kHz | Full Scans included | 1009 MB

Tattoo You is the 16th British and 18th American studio album by the Rolling Stones, released in August 1981. The follow-up to Emotional Rescue (1980), the album is mostly composed of studio outtakes recorded during the 1970s, and contains one of the band's most well-known songs, "Start Me Up", which hit number two on the United States's Billboard singles charts. The album proved to be both a critical and commercial success upon release, reaching the top of the Billboard charts, selling more than four million copies in the United States alone and over 8.5 million copies worldwide. It was also the final Rolling Stones album to reach the top position of the US charts, thus concluding the band's string of number-one albums there, dating back to 1971's Sticky Fingers.

Like Emotional Rescue before it, Tattoo You was comprised primarily of leftovers, but unlike its predecessor, it never sounds that way. Instead, Tattoo You captures the Stones at their best as a professional stadium-rock band. Divided into a rock & roll side and a ballad side, the album delivers its share of thrills on the tight, dynamic first side. "Start Me Up" became the record's definitive Stonesy rocker, but the frenzied doo wop of "Hang Fire," the reggae jam of "Slave," the sleazy Chuck Berry rockers "Little T&A" and "Neighbours," and the hard blues of "Black Limousine" are all terrific. The ballad side suffers in comparison, especially since "Heaven" and "No Use in Crying" are faceless. But "Worried About You" and "Tops" are effortless, excellent ballads, and "Waiting on a Friend," with its Sonny Rollins sax solo, is an absolute masterpiece, with a moving lyric that captures Jagger in a shockingly reflective and affecting state of mind. "Waiting on a Friend" and the vigorous rock & roll of the first side make Tattoo You an essential latter-day Stones album, ranking just a few notches below Some Girls.

Tracklist:

01. Start Me Up
02. Hang Fire
03. Slave
04. Little T&A
05. Black Limousine
06. Neighbours
07. Worried About You
08. Tops
09. Heaven
10. No Use In Crying
11. Waiting On A Friend

DSD transferred from analogue master tapes by Mick McKenna & Richard Whittaker at the FX Copyroom.
Universal Japan # UIGY-9073

foobar2000 1.6.14 / Dynamic Range Meter 1.1.1

––––––––––––––––––––––––––––––––––––––––
Analyzed: The Rolling Stones / Tattoo You
––––––––––––––––––––––––––––––––––––––––

DR Peak RMS Duration Track
––––––––––––––––––––––––––––––––––––––––
DR14 -4.01 dB -19.63 dB 3:34 01-Start Me Up
DR13 -4.58 dB -19.47 dB 2:22 02-Hang Fire
DR14 -5.35 dB -21.97 dB 4:56 03-Slave
DR12 -5.75 dB -19.78 dB 3:24 04-Little T&A
DR11 -7.77 dB -20.45 dB 3:33 05-Black Limousine
DR14 -4.84 dB -19.94 dB 3:32 06-Neighbours
DR15 -4.54 dB -22.53 dB 5:18 07-Worried About You
DR13 -4.98 dB -21.08 dB 3:47 08-Tops
DR14 -6.77 dB -23.37 dB 4:22 09-Heaven
DR15 -4.55 dB -21.62 dB 3:26 10-No Use In Crying
DR13 -6.28 dB -20.80 dB 4:36 11-Waiting On A Friend
––––––––––––––––––––––––––––––––––––––––

Number of tracks: 11
Official DR value: DR13

Samplerate: 2822400 Hz / PCM Samplerate: 176400 Hz
Channels: 2
Bits per sample: 1
Bitrate: 5645 kbps
Codec: DSD64


Thanks to PS³SACD!
Uncompressed SACD ISO size > 1,72 GB
>