Tags
Language
Tags

The Southside Movement - The South Side Movement (1973) [Official Digital Download 24-bit/96kHz]

Posted By: HDV
The Southside Movement - The South Side Movement (1973) [Official Digital Download 24-bit/96kHz]

The South Side Movement - The South Side Movement (1973)
FLAC (tracks) 24-bit/96 kHz | Time - 33:46 minutes | 764 MB
Studio Master, Official Digital Download | Artwork: Front cover

Beginning as the backing band for the soul duo Simtec & Wylie, The Southside Movement issued their self-titled debut in 1973 which featured the breakbeat favourite I've Been Watching You, a song that went on to be sampled by a slew of famed contemporary artists including the Beastie Boys, Jadakiss, Erykah Badu, Beck and Hieroglyphics. This digital reissue gives new, high-res life to a soul classic.

Southside Movement was a Chicago-based funk and soul octet which recorded in the early '70s. Made up of vocalist Melvin Moore, guitarist Bobby Pointer, keyboardist Morris Beeks, bassist Ronald Simmons, drummer Willie Hayes, alto saxophonist Milton Johnson, trumpeter Stephen Hawkins, and trombonist Bill McFarland, the group got its start as the backing band for the Sam & Dave-styled soul duo Simtec & Wylie. They later signed with the Wand label and issued their self-titled debut album in 1973; it produced a Top 20 R&B hit in the breakbeat classic "I've Been Watching You," which was sampled heavily by a future generation of hip-hoppers (including the Beastie Boys on "So What'cha Want"). The follow-up single "Can You Get to That" also charted, and the band subsequently moved to the 20th Century label. Sophomore album Movin' appeared in 1974, but despite another much-sampled item in "Save the World," it didn't match the group's earlier success. 1975's "Bus Stop" was a minor hit, and the high-quality accompanying album, Moving South, spawned a second single in "Do It to Me." However, Southside Movement broke up later that year. Collectables' CD-era compilation The Very Best of Southside Movement: I've Been Watching You concentrates mostly on their first album.

Tracklist:

01 - I' Been Watching You
02 - Love Turned Me Loose
03 - La Dee Da
04 - Have a Little Mercy
05 - Can You Get to That
06 - You're Gonna Lose My Love
07 - Come on and Love Me
08 - Everlasting Thrill
09 - Superstition
10 - Mud Wind

Analyzed: The South Side Movement / The South Side Movement
––––––––––––––––––––––––––––––––––––––––

DR Peak RMS Duration Track
––––––––––––––––––––––––––––––––––––––––
DR7 -1.18 dB -10.36 dB 3:03 01-I' Been Watching You
DR8 -1.18 dB -10.99 dB 2:09 02-Love Turned Me Loose
DR8 -1.18 dB -10.45 dB 2:55 03-La Dee Da
DR8 -1.18 dB -10.81 dB 4:54 04-Have a Little Mercy
DR8 -1.18 dB -10.90 dB 3:10 05-Can You Get to That
DR8 -1.18 dB -11.05 dB 3:23 06-You're Gonna Lose My Love
DR8 -1.18 dB -11.81 dB 2:27 07-Come on and Love Me
DR9 -1.18 dB -12.63 dB 3:03 08-Everlasting Thrill
DR9 -1.18 dB -13.07 dB 4:04 09-Superstition
DR9 -1.18 dB -12.15 dB 4:40 10-Mud Wind
––––––––––––––––––––––––––––––––––––––––

Number of tracks: 10
Official DR value: DR8

Samplerate: 96000 Hz
Channels: 2
Bits per sample: 24
Bitrate: 3187 kbps
Codec: FLAC
================================================================================


Thanks to the Original customer!