Subcategories

The Who - My Generation (1965/2014) MONO [Official Digital Download 24bit/96kHz]

Posted By: HDV
The Who - My Generation (1965/2014) MONO [Official Digital Download 24bit/96kHz]

The Who - My Generation (1965/2014) [MONO]
FLAC (tracks) 24-bit/96 kHz | Time - 70:24 minutes | 987 MB
Studio Master, Official Digital Download | Artwork: Front cover

My Generation is the debut album by The Who and was released in 1965 to great acclaim. Hailed by critics as one of the best rock albums of all time, it included hit songs such as "My Generation" and "The Kids Are Alright".

An explosive debut, and the hardest mod pop recorded by anyone. At the time of its release, it also had the most ferociously powerful guitars and drums yet captured on a rock record. Pete Townshend's exhilarating chord crunches and guitar distortions threaten to leap off the grooves on "My Generation" and "Out in the Street"; Keith Moon attacks the drums with a lightning, ruthless finesse throughout. Some "Maximum R&B" influence lingered in the two James Brown covers, but much of Townshend's original material fused Beatlesque hooks and power chords with anthemic mod lyrics, with "The Good's Gone," "Much Too Much," "La La La Lies," and especially "The Kids Are Alright" being highlights. "A Legal Matter" hinted at more ambitious lyrical concerns, and "The Ox" was instrumental mayhem that pushed the envelope of 1965 amplification with its guitar feedback and nonstop crashing drum rolls. While the execution was sometimes crude, and the songwriting not as sophisticated as it would shortly become, the Who never surpassed the pure energy level of this record.

Tracklist:

01 - Out In the Street
02 - I Don't Mind
03 - The Good's Gone
04 - La-la-la Lies
05 - Much Too Much
06 - My Generation
07 - The Kids Are Alright
08 - Please, Please, Please
09 - It's Not True
10 - I'm a Man
11 - A Legal Matter
12 - The Ox
13 - I Can't Explain
14 - Bald Headed Woman
15 - Anyway, Anyhow, Anywhere
16 - Daddy Rolling Stone
17 - Anytime You Want Me
18 - Shout and Shimmy
19 - Circles
20 - Leaving Here
21 - Lubie (Come Back Home)
22 - (Love Is Like a) Heat Wave
23 - Motoring
24 - Instant Party Mixture

Analyzed: The Who / My Generation (Mono Version)
––––––––––––––––––––––––––––––––––––––––

DR Peak RMS Duration Track
––––––––––––––––––––––––––––––––––––––––
DR10 0.00 dB -11.06 dB 2:32 01-Out In the Street
DR10 0.00 dB -11.58 dB 2:36 02-I Don't Mind
DR10 0.00 dB -11.50 dB 4:04 03-The Good's Gone
DR10 0.00 dB -10.40 dB 2:16 04-La-la-la Lies
DR10 -0.19 dB -10.79 dB 2:44 05-Much Too Much
DR9 0.00 dB -10.31 dB 3:20 06-My Generation
DR9 0.00 dB -10.27 dB 3:08 07-The Kids Are Alright
DR10 0.00 dB -11.12 dB 2:46 08-Please, Please, Please
DR8 0.00 dB -9.94 dB 2:33 09-It's Not True
DR10 0.00 dB -11.70 dB 3:22 10-I'm a Man
DR9 0.00 dB -10.57 dB 2:51 11-A Legal Matter
DR8 0.00 dB -9.35 dB 3:53 12-The Ox
DR9 0.00 dB -9.71 dB 2:05 13-I Can't Explain
DR11 0.00 dB -13.25 dB 2:10 14-Bald Headed Woman
DR9 0.00 dB -10.78 dB 2:41 15-Anyway, Anyhow, Anywhere
DR10 0.00 dB -11.48 dB 2:49 16-Daddy Rolling Stone
DR11 0.00 dB -12.65 dB 2:37 17-Anytime You Want Me
DR11 0.00 dB -12.82 dB 3:18 18-Shout and Shimmy
DR6 -2.35 dB -9.59 dB 3:13 19-Circles
DR10 0.00 dB -11.83 dB 2:49 20-Leaving Here
DR10 0.00 dB -11.10 dB 3:38 21-Lubie (Come Back Home)
DR11 -0.06 dB -12.50 dB 2:42 22-(Love Is Like a) Heat Wave
DR9 0.00 dB -10.47 dB 2:49 23-Motoring
DR13 0.00 dB -13.89 dB 3:27 24-Instant Party Mixture
––––––––––––––––––––––––––––––––––––––––

Number of tracks: 24
Official DR value: DR10

Samplerate: 96000 Hz
Channels: 2
Bits per sample: 24
Bitrate: 1564 kbps
Codec: FLAC
================================================================================



Thanks to the Original customer!

More 'The Who' in Hi-Res