The Who - My Generation (1965) [Deluxe Edition 2014] (Official Digital Download 24bit/96kHz)

Posted By: HDV
The Who - My Generation (1965) [Deluxe Edition 2014] (Official Digital Download 24bit/96kHz)

The Who - My Generation (1965) [Deluxe Edition 2014]
FLAC (tracks) 24 bit/96 kHz | Time - 91:39 minutes | 1,98 GB
Studio Stereo Master, Official Digital Download | Artwork: Front cover

The legendary debut album by one of rock’s greatest bands is finally remixed, expanded and seriously updated. Released as "The Who Sings My Generation" in the U.S. with one track change months after being issued in the U.K. as simply "My Generation", this classic album has never been previously released in real stereo anywhere and has never been remastered from the original masters. With the release of this special Deluxe Edition, these problems are resolved, and the package has now been expanded from its original twelve tracks to 30. There are 6 previously unreleased tracks, and the album’s minimal graphics have been expanded exponentially and include three sets of liner notes.

Following on the heels of an album where he repudiated his past with his greatest backing band, Blood on the Tracks finds Bob Dylan, in a way, retreating to the past, recording a largely quiet, acoustic-based album. But this is hardly nostalgia – this is the sound of an artist returning to his strengths, what feels most familiar, as he accepts a traumatic situation, namely the breakdown of his marriage. This is an album alternately bitter, sorrowful, regretful, and peaceful, easily the closest he ever came to wearing his emotions on his sleeve. That's not to say that it's an explicitly confessional record, since many songs are riddles or allegories, yet the warmth of the music makes it feel that way. The original version of the album was even quieter – first takes of "Idiot Wind" and "Tangled Up in Blue," available on The Bootleg Series, Vols. 1-3, are hushed and quiet (excised verses are quoted in the liner notes, but not heard on the record) – but Blood on the Tracks remains an intimate, revealing affair since these harsher takes let his anger surface the way his sadness does elsewhere. As such, it's an affecting, unbearably poignant record, not because it's a glimpse into his soul, but because the songs are remarkably clear-eyed and sentimental, lovely and melancholy at once. And, in a way, it's best that he was backed with studio musicians here, since the professional, understated backing lets the songs and emotion stand at the forefront. Dylan made albums more influential than this, but he never made one better.

Tracklist:

01 - Out In The Street (Stereo Version)
02 - I Don't Mind (Stereo Version)
03 - The Good's Gone (Stereo Version)
04 - La-La-La Lies (Stereo Version)
05 - Much Too Much (Stereo Version)
06 - My Generation (Stereo Version)
07 - The Kids Are Alright (Stereo Version)
08 - Please, Please, Please (Stereo Version)
09 - It's Not True (Stereo Version)
10 - I'm A Man (Stereo Version)
11 - A Legal Matter (Stereo Version)
12 - The Ox (Stereo Version)
13 - I Can't Explain (Stereo Version)
14 - Bald Headed Woman (Stereo Version)
15 - Anyway Anyhow Anywhere (Alternate Stereo Version)
16 - Daddy Rolling Stone (Stereo Version)
17 - Anytime You Want Me (Stereo Version)
18 - Shout And Shimmy (Stereo Version)
19 - Circles (Stereo Version)
20 - Instant Party Mixture (Stereo Version)
21 - Leaving Here (Alternate Stereo Version)
22 - Lubie (Come Back Home) (Stereo Version)
23 - (Love Is Like A) Heat Wave (Stereo Version)
24 - Motoring (Stereo Version)
25 - Daddy Rolling Stone (Alternate Stereo Version)
26 - The Kids Are Alright (Alternate Stereo Version)
27 - My Generation (Instrumental Stereo Version)
28 - Out In The Street (Instrumental Stereo Version)
29 - I Don't Mind (Full Length Stereo Version)
30 - The Good's Gone (Full Length Stereo Version)01 - Out In The Street (Stereo Version)
02 - I Don't Mind (Stereo Version)
03 - The Good's Gone (Stereo Version)
04 - La-La-La Lies (Stereo Version)
05 - Much Too Much (Stereo Version)
06 - My Generation (Stereo Version)
07 - The Kids Are Alright (Stereo Version)
08 - Please, Please, Please (Stereo Version)
09 - It's Not True (Stereo Version)
10 - I'm A Man (Stereo Version)
11 - A Legal Matter (Stereo Version)
12 - The Ox (Stereo Version)
13 - I Can't Explain (Stereo Version)
14 - Bald Headed Woman (Stereo Version)
15 - Anyway Anyhow Anywhere (Alternate Stereo Version)
16 - Daddy Rolling Stone (Stereo Version)
17 - Anytime You Want Me (Stereo Version)
18 - Shout And Shimmy (Stereo Version)
19 - Circles (Stereo Version)
20 - Instant Party Mixture (Stereo Version)
21 - Leaving Here (Alternate Stereo Version)
22 - Lubie (Come Back Home) (Stereo Version)
23 - (Love Is Like A) Heat Wave (Stereo Version)
24 - Motoring (Stereo Version)
25 - Daddy Rolling Stone (Alternate Stereo Version)
26 - The Kids Are Alright (Alternate Stereo Version)
27 - My Generation (Instrumental Stereo Version)
28 - Out In The Street (Instrumental Stereo Version)
29 - I Don't Mind (Full Length Stereo Version)
30 - The Good's Gone (Full Length Stereo Version)

Analyzed: Bob Dylan / Blood On The Tracks
––––––––––––––––––––––––––––––––––––––––

DR Peak RMS Duration Track
––––––––––––––––––––––––––––––––––––––––
DR12 -0.25 dB -13.67 dB 5:41 01-Tangled up in Blue
DR13 -0.25 dB -15.79 dB 4:18 02-Simple Twist of Fate
DR13 -0.25 dB -15.84 dB 4:35 03-You're a Big Girl Now
DR11 -0.25 dB -12.96 dB 7:47 04-Idiot Wind
DR13 -0.27 dB -15.11 dB 2:55 05-You're Gonna Make Me Lonesome When You Go
DR13 -0.25 dB -15.30 dB 4:21 06-Meet Me in the Morning
DR11 -0.25 dB -12.34 dB 8:52 07-Lily, Rosemary and the Jack of Hearts
DR12 -0.42 dB -15.72 dB 4:48 08-If You See Her, Say Hello
DR14 -0.53 dB -17.99 dB 5:01 09-Shelter from the Storm
DR15 -0.46 dB -18.19 dB 3:23 10-Buckets of Rain
––––––––––––––––––––––––––––––––––––––––

Number of tracks: 10
Official DR value: DR13

Samplerate: 96000 Hz
Channels: 2
Bits per sample: 24
Bitrate: 2935 kbps
Codec: FLAC
================================================================================


Thanks to the Original customer!