The Who - Tommy (1969/2014) [Super Deluxe Edition] (Official Digital Download 24bit/96kHz)

Posted By: HDV
The Who - Tommy (1969/2014) [Super Deluxe Edition] (Official Digital Download 24bit/96kHz)

The Who - Tommy (1969/2014) [Super Deluxe Edition]
FLAC (tracks) 24 bit/96 kHz | Time - 204:41 minutes | 4,65 GB
Studio Master, Official Digital Download | Artwork: Front cover

"Tommy", The Who's defining, breakthrough concept album - a full-blown rock opera about a deaf, dumb and blind boy that launched the band to international superstardom, was originally released in May 1969. The Who were at a career crossraods, they were known mainly as a singles band but this project launched them as a serious 'albums band' and has now sold over 20 million copies as well as regularly turning up in lists of the most influential albums of all time.

Tommy Super Deluxe Edition features the orignial album re-mastered along with a wealth of previously unheard material including 20 demos from Pete Townshend's archive and also a full live performance of Tommy from 1969 taken from tapes that infamously Townshend asked the band's sound engineer to burn. 18 of the previously unheard and thought to be lost live tracks were taken from a live show at the Capital Theatre, Ottowa, Canada on October the 15th, 1969. Three others, "I'm Free", "Tommy's Holiday Camp" and "We're Not Gonna Take It" were lost due to tape reels being changed during the show so are taken from later shows of the same era. As discussed at length in Pete Townshend's autobiography the tapes were all supposed to be destroyed but were kept by long time Who sound man Bob Pridden despite Pete's instructions.

Tracklist:

Part I - Original Album Version
01. Overture
02. It's A Boy
03. 1921
04. Amazing Journey
05. Sparks
06. Eyesight to the Blind (the Hawker)
07. Christmas
08. Cousin Kevin
09. The Acid Queen
10. Underture
11. Do You Think It's Alright?
12. Fiddle About
13. Pinball Wizard
14. There's A Doctor
15. Go to the Mirror!
16. Tommy Can You Hear Me?
17. Smash the Mirror
18. Sensation
19. Miracle Cure
20. Sally Simpson
21. I'm Free
22. Welcome
23. Tommy's Holiday Camp
24. We're Not Gonna Take It

Part II - Live In Canada 1969
25. Overture (Including Introduction)
26. It's A Boy
27. 1921
28. Amazing Journey
29. Sparks
30. The Hawker (Eyesight To The Blind)
31. Christmas
32. The Acid Queen
33. Pinball Wizard
34. Do You Think It's Alright?
35. Fiddle About
36. Tommy, Can You Hear Me?
37. There's A Doctor
38. Go to the Mirror!
39. Smash the Mirror
40. Miracle Cure
41. Sally Simpson
42. I'm Free
43. Tommy's Holiday Camp
44. We're Not Gonna Take It
45. See Me, Feel Me / Listening To You

Part III - Demos (Pete Townshend)
46. Overture
47. It's A Boy
48. 1921
49. Amazing Journey
50. Dream One
51. Sparks
52. The Hawker (Eyesight to the Blind)
53. Christmas
54. The Acid Queen
55. Underture (Dream Two)
56. Do You Think It's Alright?
57. Pinball Wizard
58. There's A Doctor
59. Go to the Mirror!
60. Success
61. Tommy, Can You Hear Me?
62. Smash the Mirror
63. Sensation
64. Miracle Cure
65. Sally Simpson
66. I'm Free
67. Welcome
68. We're Not Gonna Take It
69. Trying to Get Through

Part IV
70. Young Man Blues

Analyzed: Pete Townshend / Tommy (Super Deluxe) (1-24)
The Who / Tommy (Super Deluxe) (25-70)
––––––––––––––––––––––––––––––––––––––––

DR Peak RMS Duration Track
––––––––––––––––––––––––––––––––––––––––
DR10 -0.02 dB -12.00 dB 4:06 46-Overture (Demo)
DR11 -0.56 dB -15.18 dB 0:41 47-It's A Boy (Demo)
DR10 -0.75 dB -13.78 dB 3:12 48-1921 (Demo)
DR10 0.00 dB -12.73 dB 4:47 49-Amazing Journey (Demo)
DR11 0.00 dB -15.18 dB 3:09 50-Dream One (Demo)
DR9 -0.05 dB -12.85 dB 7:39 51-Sparks (Demo)
DR11 -0.16 dB -13.14 dB 4:46 52-The Hawker (Eyesight to the Blind) (Demo)
DR11 -0.12 dB -13.33 dB 4:40 53-Christmas (Demo)
DR11 0.00 dB -12.63 dB 3:34 54-The Acid Queen (Demo)
DR10 -0.18 dB -12.62 dB 1:49 55-Underture (Dream Two) (Demo)
DR10 -0.42 dB -14.52 dB 0:26 56-Do You Think It's Alright? (Demo)
DR10 0.00 dB -12.89 dB 3:42 57-Pinball Wizard (Demo)
DR10 -0.81 dB -12.51 dB 0:24 58-There's A Doctor (Demo)
DR10 -0.28 dB -12.71 dB 4:33 59-Go to the Mirror! (Demo)
DR12 -0.21 dB -13.32 dB 0:10 60-Success (Demo)
DR11 -0.12 dB -14.81 dB 1:15 61-Tommy, Can You Hear Me? (Demo)
DR10 -0.10 dB -12.55 dB 1:34 62-Smash the Mirror (Demo)
DR10 -0.02 dB -12.15 dB 2:47 63-Sensation (Demo)
DR12 -1.35 dB -13.50 dB 0:11 64-Miracle Cure (Demo)
DR10 0.00 dB -11.93 dB 4:51 65-Sally Simpson (Demo)
DR10 0.00 dB -11.99 dB 2:29 66-I'm Free (Demo)
DR12 -0.03 dB -15.72 dB 3:26 67-Welcome (Demo)
DR11 -0.15 dB -12.94 dB 5:04 68-We're Not Gonna Take It (Demo)
DR10 -0.01 dB -11.42 dB 2:11 69-Trying to Get Through (Demo)
DR10 -0.18 dB -13.50 dB 5:20 01-Overture (Original Album Version)
DR9 -1.05 dB -14.25 dB 0:39 02-It's A Boy (Original Album Version)
DR10 -0.20 dB -13.21 dB 2:49 03-1921 (Original Album Version)
DR11 -0.21 dB -12.89 dB 5:04 04-Amazing Journey (Original Album Version)
DR10 -0.36 dB -12.97 dB 2:05 05-Sparks (Original Album Version)
DR10 -0.23 dB -12.66 dB 2:14 06-Eyesight to the Blind (the Hawker) (Original Album Version)
DR10 -0.04 dB -13.43 dB 4:35 07-Christmas (Original Album Version)
DR10 -0.63 dB -12.97 dB 4:07 08-Cousin Kevin (Original Album Version)
DR10 -0.91 dB -13.93 dB 3:34 09-The Acid Queen (Original Album Version)
DR11 -0.16 dB -13.22 dB 10:04 10-Underture (Original Album Version)
DR7 -2.53 dB -12.72 dB 0:24 11-Do You Think It's Alright? (Original Album Version)
DR10 -0.34 dB -13.02 dB 1:31 12-Fiddle About (Original Album Version)
DR10 -0.21 dB -12.76 dB 3:01 13-Pinball Wizard (Original Album Version)
DR10 -1.10 dB -15.08 dB 0:24 14-There's A Doctor (Original Album Version)
DR9 -0.21 dB -10.75 dB 3:48 15-Go to the Mirror! (Original Album Version)
DR10 -1.70 dB -14.43 dB 1:35 16-Tommy Can You Hear Me? (Original Album Version)
DR9 -0.47 dB -12.35 dB 1:35 17-Smash the Mirror (Original Album Version)
DR9 -0.31 dB -12.19 dB 2:28 18-Sensation (Original Album Version)
DR9 -1.56 dB -13.37 dB 0:13 19-Miracle Cure (Original Album Version)
DR9 -1.38 dB -13.08 dB 4:10 20-Sally Simpson (Original Album Version)
DR9 -0.14 dB -11.99 dB 2:39 21-I'm Free (Original Album Version)
DR11 -0.39 dB -16.19 dB 4:33 22-Welcome (Original Album Version)
DR10 -3.77 dB -17.46 dB 0:57 23-Tommy's Holiday Camp (Original Album Version)
DR10 -0.17 dB -12.41 dB 7:06 24-We're Not Gonna Take It (Original Album Version)
DR9 0.00 dB -11.84 dB 7:01 25-Overture (Including Introduction) (Live In Canada 1969)
DR8 -0.07 dB -10.64 dB 0:40 26-It's A Boy (Live In Canada 1969)
DR8 0.00 dB -9.19 dB 2:29 27-1921 (Live In Canada 1969)
DR9 0.00 dB -9.37 dB 5:08 28-Amazing Journey (Live In Canada 1969)
DR9 0.00 dB -9.46 dB 2:49 29-Sparks (Live In Canada 1969)
DR8 -0.03 dB -9.78 dB 1:55 30-The Hawker (Eyesight To The Blind) (Live In Canada 1969)
DR8 0.00 dB -9.72 dB 3:12 31-Christmas (Live In Canada 1969)
DR8 0.00 dB -8.97 dB 3:30 32-The Acid Queen (Live In Canada 1969)
DR8 0.00 dB -8.95 dB 2:47 33-Pinball Wizard (Live In Canada 1969)
DR8 -0.13 dB -9.41 dB 0:22 34-Do You Think It's Alright? (Live In Canada 1969)
DR8 -0.09 dB -8.71 dB 1:13 35-Fiddle About (Live In Canada 1969)
DR9 0.00 dB -10.90 dB 0:56 36-Tommy, Can You Hear Me? (Live In Canada / 1969)
DR9 -0.10 dB -12.03 dB 0:24 37-There's A Doctor (Live In Canada 1969)
DR7 0.00 dB -8.11 dB 3:23 38-Go to the Mirror! (Live In Canada 1969)
DR7 0.00 dB -8.32 dB 1:11 39-Smash the Mirror (Live In Canada 1969)
DR8 -0.03 dB -10.55 dB 0:12 40-Miracle Cure (Live In Canada 1969)
DR8 0.00 dB -8.67 dB 4:02 41-Sally Simpson (Live In Canada 1969)
DR8 0.00 dB -9.20 dB 2:12 42-I'm Free (Live In Canada 1969)
DR8 0.00 dB -9.39 dB 0:48 43-Tommy's Holiday Camp (Live In Canada 1969)
DR8 0.00 dB -8.54 dB 3:29 44-We're Not Gonna Take It (Live In Canada 1969)
DR7 0.00 dB -8.84 dB 7:52 45-See Me, Feel Me / Listening To You (Live In Canada 1969)
DR8 -0.01 dB -9.73 dB 2:48 70-Young Man Blues
––––––––––––––––––––––––––––––––––––––––

Number of tracks: 70
Official DR value: DR9

Samplerate: 96000 Hz
Channels: 2
Bits per sample: 24
Bitrate: 3235 kbps
Codec: FLAC
================================================================================


Thanks to the Original customer!