Tags
Language
Tags

Thelonious Monk, John Coltrane - Thelonious Monk With John Coltrane (1961/2016) [Official Digital Download 24bit/192kHz]

Posted By: HDV
Thelonious Monk, John Coltrane - Thelonious Monk With John Coltrane (1961/2016) [Official Digital Download 24bit/192kHz]

Thelonious Monk With John Coltrane (1961/2016)
FLAC (tracks) 24 bit/192 kHz | Time - 45:51 minutes | 1,25 GB
FLAC (tracks) 24 bit/96 kHz | Time - 45:51 minutes | 694 MB
Studio Master, Official Digital Download | Artwork: Digital booklet

Recorded over three sessions in 1957, when Thelonious Monk was leading a band that included John Coltrane, this historic meeting of two legends was not released until 1961 due to contractual issues. By that time Coltrane was a household name, leading his own band, at least as famous or even more so than Monk. This album was inducted into the Grammy Hall of Fame in 2007.

Universally regarded as one of the greatest collaborations between the two most influential musicians in modern jazz (Miles Davis notwithstanding), the Jazzland sessions from Thelonious Monk and John Coltrane should be recognized on other levels. While the mastery of the principals is beyond reproach, credit should also be given to peerless bassist Wilbur Ware, as mighty an anchor as anyone could want. These 1957 dates also sport a variety in drummerless trio, quartet, septet, or solo piano settings, all emphasizing the compelling and quirky compositions of Monk. A shouted-out, pronounced "Off Minor" and robust, three-minute "Epistrophy" with legendary saxophonists Coleman Hawkins, Gigi Gryce, and the brilliant, underappreciated trumpeter Ray Copeland are hallmark tracks that every jazz fan should revere. Of the four quartet sessions, the fleet "Trinkle Tinkle" tests Coltrane's mettle, as he's perfectly matched alongside Monk, but conversely unforced during "Nutty" before taking off. Monk's solo piano effort, "Functional," is flavored with blues, stride, and boogie-woogie, while a bonus track, "Monk's Mood," has a Monk-Ware-Coltrane tandem (minus drummer Shadow Wilson) back for an eight-minute excursion primarily with Monk in a long intro, 'Trane in late, and Ware's bass accents booming through the studio. This will always be an essential item standing proudly among unearthed live sessions from Monk and Coltrane, demarcating a pivotal point during the most significant year in all types of music, from a technical and creative standpoint, but especially the jazz of the immediate future.

Tracklist:

01 - Ruby, My Dear
02 - Trinkle, Tinkle
03 - Off Minor (take 4)
04 - Nutty
05 - Epistrophy (alt. take)
06 - Functional (alt. take)
07 - Monk's Mood

Produced by Orrin Keepnews. Engineered by Jack Higgins.
Recorded at Reeves Sound Studios, NYC; April 12, June 26 & July, 1957.
All tracks in Mono except "3 & 5" recorded in Stereo.

Musicians
Thelonious Monk - piano
John Coltrane - tenor saxophone
Ray Copeland - trumpet on "3 & 5"
Gigi Gryce - alto saxophone on "3 & 5"
Coleman Hawkins - tenor saxophone on "3 & 5"
Wilbur Ware - bass
Shadow Wilson - drums on "1, 2 & 4"
Art Blakey - drums on "3 & 5"

Analyzed: Thelonious Monk, John Coltrane / Thelonious Monk With John Coltrane
––––––––––––––––––––––––––––––––––––––––

DR Peak RMS Duration Track
––––––––––––––––––––––––––––––––––––––––
DR13 -0.05 dB -15.18 dB 6:23 01-Ruby, My Dear
DR12 0.00 dB -14.02 dB 6:41 02-Trinkle, Tinkle
DR13 0.00 dB -15.70 dB 5:17 03-Off Minor (take 4)
DR13 0.00 dB -15.26 dB 6:40 04-Nutty
DR12 -0.51 dB -15.18 dB 3:11 05-Epistrophy (alt. take)
DR16 -0.47 dB -20.65 dB 9:46 06-Functional (alt. take)
DR14 0.00 dB -17.65 dB 7:53 07-Monk's Mood
––––––––––––––––––––––––––––––––––––––––

Number of tracks: 7
Official DR value: DR13

Samplerate: 192000 Hz
Channels: 2
Bits per sample: 24
Bitrate: 3330 kbps
Codec: FLAC
================================================================================


Thanks to the Original customer!