Tags
Language
Tags

Thibault Noally - A Violino solo (2013) [Official Digital Download 24bit/96kHz]

Posted By: HDV
Thibault Noally - A Violino solo (2013) [Official Digital Download 24bit/96kHz]

Thibault Noally - Baltzar > Bach: à violino solo (2013)
FLAC (tracks) 24 bit/96 kHz | Time - 79:17 minutes | 1,49 GB
Studio Master, Official Digital Download | Artwork: Digital booklet

Thibault Noally is a recognized name in the international baroque scene he is an actor for many years, both as a solo violin Musiciens du Louvre-Grenoble Marc Minkowski, with the Concerto Köln, Pulcinella or all Matheus. This first solo album, highly anticipated, put in the spotlight in a directory that he knows how to translate all the subtleties works for solo violin Baroque Germany.

This period, in which the violin reaches the perfection of its form and its sound is a treasure for all researchers whose masterpiece Sonatas and Partitas of JS Bach part (here the incredible Chaconne). Throughout the disc, we (re) discover Thomas Baltzar (1631-1663) whose work requires a mastery, precise and unfailing virtuosity; Vilsmayer Johann Joseph (1663-1722), Franz Biber (1644-1704) featured the Salzburg court, Johann Paul von Westhoff (1656-1705) co-Bach in Weimar, Georg Philipp Telemann (1681-1767), whose most famous pages are known.

A look at the soul of the German Baroque, through its diversity, finesse, and its evolution over the 17th and 18th centuries, and the song of the king instrument: the violin.

Thibault plays with Zen-like calmness, and ends phrases and sections exquisitely…In his stylish performance of the Bach he plays thoughtfully, choosing sensible rather than showy tempi and always shaping his phrases with delicate rubato…We look forward to more from this promising violinist. – Gramophone, March 2014

Tracklist:

Johann Joseph Vilsmayr -
Partita n°5 en sol mineur pour violon seul extrait de Partita n°5 in G minor for solo violin from
"Artificiosus Concentus pro Camera"
01. Prelude. Harpeggio
02. Gavott. Allegro
03. Saraband. Adagio
04. Rigodon. Allegro
05. Guique. Allegro
06. Menuett
07. Boure
08. Retirada. Allegro

Georg Philipp Telemann - "Fantasy for solo violin in D major TWV 40:23"
09. Fantaisie pour violon seul en ré majeur TWV 40:23

Johann Paul von Westhoff - "Suite n°5 pour violon seul en ré mineur, Suite n°5 for solo violin in D minor"
10. Allemande
11. Courante
12. Sarabande
13. Gigue

Georg Philipp Telemann - "Fantasy for solo violin in A minor TWV 40:25"
14. Fantaisie pour violon seul en la mineur TWV 40:25

Thomas Baltzar -
15. Praeludium en do mineur in C minor
16. Allemande en sol mineur in G minor

Georg Philipp Telemann - "Fantasy for solo violin in G major TWV 40:15"
17. Fantaisie pour violon seul en sol majeur TWV 40:15

Johann Sebastian Bach - "Partita n°2 for solo violin in D minor BWV 1004"
Partita n°2 pour violon seul en ré mineur BWV 1004
18. Allemanda
19. Corrente
20. Sarabanda
21. Giga
22. Ciaccona

Georg Philipp Telemann - "Fantasy for solo violin in D major TWV 40:17"
23. Fantaisie pour violon seul en ré majeur TWV 40:17

Heinrich Ignaz Franz Biber -
24. Passagaglia pour violon seul extrait des "Rosenkrantz Sonaten"
Passagaglia for solo violin from "Rosenkrantz Sonaten"


Analyzed: Thibault Noally / Baltzar > Bach: à violino solo
––––––––––––––––––––––––––––––––––––––––

DR Peak RMS Duration Track
––––––––––––––––––––––––––––––––––––––––
DR10 -1.35 dB -15.35 dB 1:31 01-Partita n°5 in G minor - I. Prelude, Harpeggio
DR11 -2.64 dB -16.33 dB 1:33 02-Partita n°5 in G minor - II. Gavotte, Allegro
DR11 -3.03 dB -17.63 dB 3:25 03-Partita n°5 in G minor - III. Sarabande, Adagio
DR13 -0.10 dB -15.89 dB 1:20 04-Partita n°5 in G minor - IV. Rigodon, Allegro
DR11 -2.99 dB -16.88 dB 0:41 05-Partita n°5 in G minor - V. Guique, Allegro
DR12 -1.42 dB -16.18 dB 1:43 06-Partita n°5 in G minor - VI. Menuetto
DR12 -1.74 dB -16.33 dB 1:09 07-Partita n°5 in G minor - VII. Bourre
DR13 -0.10 dB -15.77 dB 2:02 08-Partita n°5 in G minor - VIII. Retirada, Allegro
DR13 -0.34 dB -17.12 dB 4:40 09-Fantasy for solo violin in D Major TWV 40:23
DR11 -0.46 dB -14.21 dB 2:14 10-Suite n°5 in D minor - I. Allemande
DR11 -1.08 dB -14.52 dB 1:26 11-Suite n°5 in D minor - II. Courante
DR11 -1.01 dB -14.35 dB 1:15 12-Suite n°5 in D minor - III. Sarabande
DR12 -0.10 dB -14.82 dB 2:16 13-Suite n°5 in D minor - IV. Gigue
DR13 -0.10 dB -15.91 dB 4:08 14-Fantasy for solo violin in A Minor TWV 40:25
DR11 -0.10 dB -14.81 dB 1:32 15-Praeludium in C Minor
DR11 -1.17 dB -15.49 dB 1:29 16-Allemande in G Minor
DR13 -0.10 dB -15.29 dB 4:37 17-Fantasy for solo violin in G Major TWV 40:15
DR12 -0.25 dB -14.12 dB 4:16 18-Partita n°2 in D minor BWV 1004 - I. Allemanda
DR12 -0.10 dB -14.31 dB 2:48 19-Partita n°2 in D minor BWV 1004 - II. Corrente
DR12 -0.10 dB -16.23 dB 4:02 20-Partita n°2 in D minor BWV 1004 - III. Sarabanda
DR12 -0.10 dB -13.43 dB 4:08 21-Partita n°2 in D minor BWV 1004 - IV. Giga
DR11 -0.10 dB -13.52 dB 13:58 22-Partita n°2 in D minor BWV 1004 - V. Ciaccona
DR13 -0.10 dB -15.66 dB 4:44 23-Fantasy for solo violin in D Major TWV 40:17
DR12 -0.64 dB -15.23 dB 8:18 24-Passagaglia for solo violin from “Rosenkrantz Sonaten”
––––––––––––––––––––––––––––––––––––––––

Number of tracks: 24
Official DR value: DR12

Samplerate: 96000 Hz
Channels: 2
Bits per sample: 24
Bitrate: 2586 kbps
Codec: FLAC
================================================================================


Thanks to the Original customer!