Thierry Maillard - Il canto delle montagne (2016) [Official Digital Download 24/88]

Posted By: HDV
Thierry Maillard - Il canto delle montagne (2016) [Official Digital Download 24/88]

Thierry Maillard, Dominique Di Piazza, Andre Ceccarelli - Il canto delle montagne (2016)
FLAC (tracks) 24-bit/88,2 kHz | Time - 68:37 minutes | 1,4 GB
Studio Master, Official Digital Download | Artwork: Front cover

Piano trio album, lead the French pianist Thierry Maillard. The other members are bassist Dominique Di Piazza, who's played with John McLaughlin in the past, and André Ceccarelli, a French drum legend, who's played a lot of jazz but also with pop artists like Sting or Tina Turner. Therefore, very experienced personnel here, and it shows. They pay a lot of attention to each other, and therefore each of the 16 original tracks, are worth discovering. The album was essentially composed after the Bataclan terrorist attacks in Paris. However, there's no terror in here, just beauty.

Tracklist:

01 - Il canto delle montagne
02 - Le temps qui passe
03 - Sultan
04 - Valse sentimentale
05 - Hymne
06 - Irish Ghost
07 - Le château des sirènes
08 - Plus jamais pareil
09 - US Folk
10 - My Own Jazz
11 - Mamallapuram
12 - Réunion
13 - Lullaby
14 - Viking Song
15 - Le lac de Côme
16 - A Paris

All compositions by Thierry Maillard.
Produced by Thierry Maillard & Christian Pégand.
Recorded in April 2016 at Studio de Meudon.
Recording & Mixing Engineer: Julien Basseres.
Mastered by Mark Halliday at Custom Studio.

Musicians:
Thierry Maillard - piano
Dominique Di Piazza - bass
André Ceccarelli - drums

Analyzed: Dominique Di Piazza / Il canto delle montagne
––––––––––––––––––––––––––––––––––––––––

DR Peak RMS Duration Track
––––––––––––––––––––––––––––––––––––––––
DR10 -0.50 dB -13.42 dB 3:28 01-Il canto delle montagne
DR9 -0.50 dB -12.23 dB 3:36 02-Le temps qui passe
DR9 -0.50 dB -11.42 dB 3:49 03-Sultan
DR9 -0.50 dB -11.02 dB 4:50 04-Valse sentimentale
DR8 -0.50 dB -11.73 dB 4:43 05-Hymne
DR9 -0.50 dB -12.38 dB 5:47 06-Irish Ghost
DR8 -0.50 dB -11.42 dB 3:56 07-Le château des sirènes
DR12 -0.50 dB -15.74 dB 4:15 08-Plus jamais pareil
DR9 -0.50 dB -11.14 dB 3:31 09-US Folk
DR9 -0.50 dB -11.60 dB 4:50 10-My Own Jazz
DR11 -0.50 dB -13.57 dB 3:14 11-Mamallapuram
DR9 -0.50 dB -11.39 dB 4:53 12-Réunion
DR9 -0.50 dB -12.69 dB 4:49 13-Lullaby
DR8 -0.50 dB -10.61 dB 4:12 14-Viking Song
DR9 -0.50 dB -11.74 dB 4:54 15-Le lac de Côme
DR9 -0.50 dB -13.65 dB 3:49 16-A Paris
––––––––––––––––––––––––––––––––––––––––

Number of tracks: 16
Official DR value: DR9

Samplerate: 88200 Hz
Channels: 2
Bits per sample: 24
Bitrate: 2754 kbps
Codec: FLAC
================================================================================


Thanks to the Original customer!

Thierry Maillard - Alone: Piano Solo (2017)