Tim Hugh - Hands On Heart: Live at Wigmore Hall (2008) [Official Digital Download 24/88]

Posted By: HDV
Tim Hugh - Hands On Heart: Live at Wigmore Hall (2008) [Official Digital Download 24/88]

Tim Hugh - Hands On Heart: Live at Wigmore Hall (2008)
FLAC (tracks) 24 bit/88,2 kHz | Time - 74:00 minutes | 1,17 GB
Studio Master, Official Digital Download | Artwork: Digital booklet

Tim Hugh, principle cellist of the London Symphony Orchestra, is widely regarded as the one of the great British cellists of the 21st century. This recording also features top Russian accompanist Olga Sitkovetsky (piano).

In 2005, Steve Hugh, Tim's older brother, unexpectedly died of a heart attack. This recording was made on 26th November 2007 amongst the famous acoustics and architecture of the Wigmore Hall in London, at ‘A Concert for Steve' that the Hugh family had arranged in order to raise funds for the charity, British Heart Foundation.

Hands On Heart is an apt and emotional tribute, but also a poignant collection of mixed classical repertoire for cello and piano including a number of colourful encores such as Rimsky-Korsakov's ‘Flight of the Bumblebee' and personal favourites such as Faure's ‘Apres un Reve'.

The concert was recorded and mastered in high resolution 24-bit/96kHz digital audio by legendary classical engineer Tony Faulkner.

Tracklist:

01 - Bartók: Rhapsody No 1 - Lassu
02 - Bartók: Rhapsody No 1 - Friss
03 - Kodály: Sonata For Cello - Allegro Maestri Ma Appasionato
04 - Kodály: Sonata For Cello - Sonata For Cello - Op.8 Adagio
05 - Kodály - Sonata For Cello - Sonata For Cello - Op.8 Allegro Molto Vivace
06 - Piazzolla: Le Grand Tango
07 - Rachmaninov: Ne Pay Krasavitsa Op.4-4
08 - Paganini: Moses In Egypt (Variations on a Theme)
09 - Glazunov: Chant Du Menestrel - Op.71
10 - Rimsky-Korsakov: Flight Of The Bumble Bee
11 - Fauré: Apres Un Reve - Op.7-1

Produced by Tony Faulkner & Tim Hugh.

Analyzed: Tim Hugh / Tim Hugh - Hands On Heart - Live At Wigmore Hall (2008) (Hi Res 24bit-88khz)
––––––––––––––––––––––––––––––––––––––––

DR Peak RMS Duration Track
––––––––––––––––––––––––––––––––––––––––
DR14 -4.81 dB -24.46 dB 4:42 01-Bartok - Rhapsody No 1 - Lassu
DR16 -2.19 dB -23.40 dB 6:17 02-Bartok - Rhapsody No 1 - Friss
DR13 -6.53 dB -26.69 dB 7:36 03-Kodaly - Sonata For Cello - Allegro Maestri Ma Appasionato
DR13 -7.85 dB -28.05 dB 9:38 04-Kodaly - Sonata For Cello - Sonata For Cello - Op 8 Adagio
DR19 0.00 dB -23.95 dB 11:03 05-Kodaly - Sonata For Cello - Sonata For Cello - Op 8 Allegro Molto Vivace
DR15 -2.59 dB -23.66 dB 10:58 06-Piazzolla - Le Grand Tango
DR19 -2.63 dB -29.31 dB 5:21 07-Rachmaninov - Ne Pay Krasavitsa Op4-4
DR17 -1.41 dB -25.79 dB 7:35 08-Paganini - Moses In Egypt - Variations on a Theme
DR16 -5.10 dB -26.86 dB 4:54 09-Glazunov - Chant Du Menestrel - Op71
DR15 -1.85 dB -24.22 dB 1:55 10-Rimsky-Korsakov - Flight Of The Bumble Bee
DR18 -2.85 dB -26.86 dB 4:01 11-Faure - Apres Un Reve - Op7-1
––––––––––––––––––––––––––––––––––––––––

Number of tracks: 11
Official DR value: DR16

Samplerate: 88200 Hz
Channels: 2
Bits per sample: 24
Bitrate: 2209 kbps
Codec: FLAC
================================================================================


Thanks to the Original customer!