Tags
Language
Tags

Tokyo Cinema Jazz Trio - Jazz Cinema Nostalgia (2017) [DSD128 + Hi-Res FLAC]

Posted By: HDV
Tokyo Cinema Jazz Trio - Jazz Cinema Nostalgia (2017) [DSD128 + Hi-Res FLAC]

Tokyo Cinema Jazz Trio - Jazz Cinema Nostalgia (2017)
DSD128 (.dsf) 1 bit/5,6 MHz | Time - 61:34 minutes | 3,15 GB
FLAC (tracks) 24-bit/176,4 kHz | Time - 61:34 minutes | 2,3 GB
Studio Master, Official Digital Download | Artwork: Small front

"Jazz Cinema Nostalgia" is the third album by Tokyo Cinema Jazz Trio, led by drummer Osaka Masahiko. The previous trio's album "Jazz Cinema Paradise" won Japanese Jazz Award of 'Album of the Year' in the High Quality Recording category. Like the previous work, this native DSD 11.2 MHz recording uses vintage products on recording equipment, fusion of cutting edge technology and nostalgic equipment.

Tracklist:

01 - Waltz For Debby
02 - More
03 - Love Theme From 'Sunflower'
04 - Alfie's Theme
05 - Close Enough For Love
06 - You Must Believe In Spring
07 - Autumn Leaves
08 - Calling You
09 - Two For The Road
10 - Moritato
11 - I Will Wait For You

This work which used the highest peak analogue instruments such as Ampex, Telefunken, Neumann, RCA, Neve and other vintage equipment such as vacuum tube limiter Fair Child and Collins / 26U - 2, the best analogue and the best of the best digital There is no doubt that it is a combination, which is a list of more than ever.

Musicians:
Osaka Masahiko - drums
Yasumasa Kumagai - piano
Pat Glynn - bass

Analyzed: Tokyo Cinema Jazz Trio / Jazz Cinema Nostalgia
––––––––––––––––––––––––––––––––––––––––

DR Peak RMS Duration Track
––––––––––––––––––––––––––––––––––––––––
DR12 -4.30 dB -19.05 dB 6:22 01-Waltz For Debby
DR16 -3.53 dB -22.95 dB 6:11 02-More
DR14 -2.23 dB -19.69 dB 4:21 03-Love Theme From 'Sunflower'
DR14 -3.50 dB -21.34 dB 5:03 04-Alfie's Theme
DR13 -8.18 dB -24.39 dB 5:54 05-Close Enough For Love
DR11 -4.44 dB -19.36 dB 5:39 06-You Must Believe In Spring
DR17 -3.44 dB -23.39 dB 5:32 07-Autumn Leaves
DR15 -4.16 dB -23.06 dB 4:43 08-Calling You
DR17 -3.47 dB -23.33 dB 5:53 09-Two For The Road
DR14 -3.45 dB -20.64 dB 6:20 10-Moritato
DR12 -4.18 dB -19.94 dB 5:42 11-I Will Wait For You
––––––––––––––––––––––––––––––––––––––––

Number of tracks: 11
Official DR value: DR14

Samplerate: 5644800 Hz / PCM Samplerate: 176400 Hz
Channels: 2
Bits per sample: 1
Bitrate: 11290 kbps
Codec: DSD128
================================================================================


Thanks to the Original customer!