Subcategories

Tom Petty & The Heartbreakers - Hard Promises (1981/2015) [Official Digital Download 24/96]

Posted By: HDV
Tom Petty & The Heartbreakers - Hard Promises (1981/2015) [Official Digital Download 24/96]

Tom Petty & The Heartbreakers - Hard Promises (1981/2015)
FLAC (tracks) 24-bit/96 kHz | Time - 40:02 minutes | 959 MB
Studio Master, Official Digital Download | Artwork: Images of the master tapes (PDF)

Hard Promises is the fourth album by the Heartbreakers was produced by Jimmy Iovine and Tom Petty and was recorded at Sound City in Van Nuys, CA and Cherokee Studios in Hollywood, CA. Both "The Waiting" and "A Woman In Love (It's Not Me)" were released as singles.

Damn the Torpedoes wasn't simply a culmination of Tom Petty's art; it happened to be a huge success, enabling him to call the shots on its successor, Hard Promises. Infamously, he used his first album as a star to challenge the record industry's practice of charging more for A-list artists, demanding that Hard Promises should be listed for less than most records by an artist of his stature, but if that was the only thing notable about the album, it would have disappeared like Long After Dark. Instead, it offered a reaffirmation that Damn the Torpedoes wasn't a fluke. There's not much new on the surface, since it continues the sound of its predecessor, but it's filled with great songwriting, something that's as difficult to achieve as a distinctive sound. The opener, "The Waiting," became the best-known song on the record, but there's no discounting "A Woman in Love (It's Not Me)," "Nightwatchman," "Kings Road," "Insider," and "The Criminal Kind," album tracks that would become fan favorites. If Hard Promises doesn't have the sweep of Damn the Torpedoes, that's because its predecessor was blessed with good timing and an unusually strong set of songs. Hard Promises isn't quite so epochal, yet it has a tremendous set of songs and a unified sound that makes it one of Petty's finest records.

Tracklist:

01 - The Waiting
02 - A Woman In Love (It's Not Me)
03 - Nightwatchman
04 - Something Big
05 - Kings Road
06 - Letting You Go
07 - A Thing About You
08 - Insider
09 - The Criminal Kind
10 - You Can Still Change Your Mind

Tom Petty Hi-Res Remastering Note:
The Hi-Res (24bit 96K) remastering of the Tom Petty catalog reveals a level of detail that was only previously heard by a select group of musicians, producers and engineers in the studio. It’s as close to the sound of original stereo master as you can get. We’re very happy with the way it came out, and believe it’s an important way to preserve the legacy of this great body of work.

If hearing the highest possible sound quality is important to you, then this is where you’ll get it.

The remastering was done in the fall of 2014 by Chris Bellman at Bernie Grundman Mastering. I supervised it and Tom approved it. Great care was taken to find the original first-generation masters and transfer them with minimal eq and little or no dynamic range compression. In cases where the first-generation masters were unusable, we used the best sounding second-generation masters.*

To allow for full dynamic range, and to let the music “breathe” the Hi-Res versions have about 6-8db less digital level than a typical “loud” peak-limited CD or mp3. To enjoy these albums to their fullest extent, play them back though a good system and turn up the volume.

With this increased level of detail and sonic impact, we hope you'll enjoy rediscovering these great albums as much as we did!
Analyzed: Tom Petty & The Heartbreakers / Hard Promises (Remastered 2015)
––––––––––––––––––––––––––––––––––––––––

DR Peak RMS Duration Track
––––––––––––––––––––––––––––––––––––––––
DR10 -3.16 dB -15.35 dB 3:58 01-The Waiting
DR12 -0.97 dB -15.75 dB 4:22 02-A Woman In Love (It's Not Me)
DR11 -2.81 dB -15.96 dB 4:01 03-Nightwatchman
DR11 -3.09 dB -16.11 dB 4:44 04-Something Big
DR11 -2.64 dB -15.09 dB 3:24 05-Kings Road
DR11 -3.24 dB -16.53 dB 3:23 06-Letting You Go
DR11 -3.23 dB -15.80 dB 3:31 07-A Thing About You
DR10 -3.02 dB -16.51 dB 4:23 08-Insider
DR11 -2.75 dB -15.50 dB 3:59 09-The Criminal Kind
DR12 -1.99 dB -17.45 dB 4:17 10-You Can Still Change Your Mind
––––––––––––––––––––––––––––––––––––––––

Number of tracks: 10
Official DR value: DR11

Samplerate: 96000 Hz
Channels: 2
Bits per sample: 24
Bitrate: 3017 kbps
Codec: FLAC
================================================================================


Thanks to the Original customer!