Tom Petty & The Heartbreakers - Southern Accents (1985/2015) [Official Digital Download 24/96]

Posted By: HDV
Tom Petty & The Heartbreakers - Southern Accents (1985/2015) [Official Digital Download 24/96]

Tom Petty & The Heartbreakers - Southern Accents (1985/2015)
FLAC (tracks) 24-bit/96 kHz | Time - 39:35 minutes | 973 MB
Studio Master, Official Digital Download | Artwork: Images of the master tapes (PDF)

This album is the Heartbreakers'€™ sixth and featured multiple producers on various tracks including Tom Petty, Mike Campbell, Jimmy Iovine, Dave Stewart, and Robbie Robertson. It was recorded at Gone Gator One Studios, Sound City, Village Recorder, Sunset Sound, and Church Studio, London. Southern Accents made it to number 7 on the US Billboard 200 after its release in 1985. Singles from this album include "Make It Better (Forget About Me)", "Rebels" and "Don'€™t Come Around Here No More", which peaked at number 13 on Billboard's Hot 100.

Produced by Dave Stewart, Southern Accents is an ambitious album, attempting to incorporate touches of psychedelia, soul, and country into a loose concept about the modern South. Occasionally, the songs work; "Rebels" and "Spike" are fine rockers, and "Don't Come Around Here No More" and "Make It Better (Forget About Me)" expand The Heartbreakers' sound nicely. But too often, the record is weighed down by its own ambitions.

Tracklist:

01 - Rebels
02 - It Ain't Nothin' To Me
03 - Don't Come Around Here No More
04 - Southern Accents
05 - Make It Better (Forget About Me)
06 - Spike
07 - Dogs On The Run
08 - Mary's New Car
09 - The Best Of Everything

Tom Petty Hi-Res Remastering Note:
The Hi-Res (24bit 96K) remastering of the Tom Petty catalog reveals a level of detail that was only previously heard by a select group of musicians, producers and engineers in the studio. It’s as close to the sound of original stereo master as you can get. We’re very happy with the way it came out, and believe it’s an important way to preserve the legacy of this great body of work.

If hearing the highest possible sound quality is important to you, then this is where you’ll get it.

The remastering was done in the fall of 2014 by Chris Bellman at Bernie Grundman Mastering. I supervised it and Tom approved it. Great care was taken to find the original first-generation masters and transfer them with minimal eq and little or no dynamic range compression. In cases where the first-generation masters were unusable, we used the best sounding second-generation masters.*

To allow for full dynamic range, and to let the music “breathe” the Hi-Res versions have about 6-8db less digital level than a typical “loud” peak-limited CD or mp3. To enjoy these albums to their fullest extent, play them back though a good system and turn up the volume.

With this increased level of detail and sonic impact, we hope you'll enjoy rediscovering these great albums as much as we did!
Analyzed: Tom Petty & The Heartbreakers / Southern Accents (Remastered 2015)
––––––––––––––––––––––––––––––––––––––––

DR Peak RMS Duration Track
––––––––––––––––––––––––––––––––––––––––
DR12 -0.57 dB -15.56 dB 5:19 01-Rebels
DR14 -0.64 dB -17.19 dB 5:10 02-It Ain't Nothin' To Me
DR13 -1.42 dB -17.04 dB 5:04 03-Don't Come Around Here No More
DR12 -4.91 dB -20.78 dB 4:44 04-Southern Accents
DR13 -0.80 dB -16.14 dB 4:22 05-Make It Better (Forget About Me)
DR15 -1.31 dB -19.02 dB 3:32 06-Spike
DR12 -1.95 dB -16.58 dB 3:39 07-Dogs On The Run
DR12 -4.06 dB -18.94 dB 3:44 08-Mary's New Car
DR12 -3.99 dB -19.75 dB 4:02 09-The Best Of Everything
––––––––––––––––––––––––––––––––––––––––

Number of tracks: 9
Official DR value: DR13

Samplerate: 96000 Hz
Channels: 2
Bits per sample: 24
Bitrate: 3090 kbps
Codec: FLAC
================================================================================


Thanks to the Original customer!