Tony Bennett & k.d. Lang - A Wonderful World (2002) [2.0 & 5.1] PS3 ISO + Hi-Res FLAC

Posted By: HDAtall
Tony Bennett & k.d. Lang - A Wonderful World (2002) [2.0 & 5.1] PS3 ISO + Hi-Res FLAC

Tony Bennett & k.d. lang - A Wonderful World (2002) [2.0 & 5.1]
PS3 Rip | SACD ISO | DST64 2.0 & 5.1 > 1-bit/2.8224 MHz | 43:48 minutess | Full Scans included | 4,24 GB
or FLAC 2.0 Stereo (converted with foobar2000 to tracks) 24bit/88,2 kHz | 43:17 mins | Full Scans | 865 MB

Tony Bennett has sung with k.d. lang previously, notably on his MTV Unplugged album, and the two have meshed well together, largely because of lang's willingness to sublimate herself to Bennett's approach. The same thing can be said of the two on this full-length duet album (which also contains solos – Bennett is heard alone on "That's My Dream," lang on "A Kiss to Build a Dream On" and "That Lucky Old Sun [Just Rolls Around Heaven All Day]"). It isn't just that lang joins in on material more suitable to Bennett's style than to hers. This is an album on which the musicians are the members of Bennett's backup group (plus strings), recorded in Bennett's studio. But one never gets the sense that lang is restricted by the approach. She is sufficiently versatile, or chameleon-like, to sound like she's enjoying herself, just as she did earlier in her career when she was working with producer Owen Bradley in Nashville and singing traditional country. At 76, Bennett sings with an easy, casual style, never seeming to work very hard for his effects, and lang, in her vocal prime, deliberately complements him, though she never seems quite as comfortable. Although there is no indication other than an uncredited painting (by Bennett, of course) inside the CD booklet, this is a tribute album to Louis Armstrong, who recorded these songs over the course of his long career. That doesn't mean that there's a trumpet to be heard anywhere on the disc or that either of the singers tries to re-create any aspect of Armstrong's vocal style. It simply provides an organizing principle that the listener can notice or not. (Well, it's hard not to notice during the title song, with Bennett's references to "Satchmo" and "Pops.") Like Armstrong, Bennett and lang are trying to make the music sound effortless and unstudied, and to a large extent they succeed.

Tracklist:

01. Exactly Like You
02. La Vie En Rose
03. I'm Confessin' (That I Love You)
04. You Can Depend On Me
05. What A Wonderful World
06. That's My Home
07. A Kiss To Build A Dream On
08. I Wonder
09. Dream A Little Dream Of Me
10. You Can't Lose A Broken Heart
11. That Lucky Old Sun (Just Rolls Around Heaven All Day)
12. If We Never Meet Again

Mastered fo SACD by Darcy Proper.

foobar2000 1.2.9 / Dynamic Range Meter 1.1.1

––––––––––––––––––––––––––––––––––––––––
Analyzed: TONY BENNETT & K.D. LANG / A WONDERFUL WORLD
––––––––––––––––––––––––––––––––––––––––

DR Peak RMS Duration Track
––––––––––––––––––––––––––––––––––––––––
DR13 -6.83 dB -25.72 dB 3:18 01-Exactly Like You
DR12 -9.88 dB -28.27 dB 3:24 02-La Vie En Rose
DR13 -7.37 dB -27.62 dB 4:46 03-I'm Confessin' (That I Love You)
DR14 -7.75 dB -25.04 dB 3:01 04-You Can Depend On Me
DR11 -11.30 dB -29.11 dB 3:23 05-What A Wonderful World
DR13 -7.00 dB -25.46 dB 3:05 06-That's My Home
DR13 -8.14 dB -26.04 dB 3:26 07-A Kiss To Build A Dream On
DR12 -7.64 dB -25.07 dB 3:49 08-I Wonder
DR12 -8.42 dB -24.57 dB 3:53 09-Dream A Little Dream Of Me
DR13 -9.23 dB -26.36 dB 3:14 10-You Can't Lose A Broken Heart
DR13 -7.71 dB -28.86 dB 4:37 11-That Lucky Old Sun (Just Rolls Around Heaven All Day)
DR11 -11.92 dB -28.16 dB 3:53 12-If We Never Meet Again
––––––––––––––––––––––––––––––––––––––––

Number of tracks: 12
Official DR value: DR12

Samplerate: 2822400 Hz / PCM Samplerate: 88200 Hz
Channels: 6
Bits per sample: 24
Bitrate: 16934 kbps
Codec: DST64
================================================================================

––––––––––––––––––––––––––––––––––––––––
Analyzed: TONY BENNETT & K.D. LANG / A WONDERFUL WORLD
––––––––––––––––––––––––––––––––––––––––

DR Peak RMS Duration Track
––––––––––––––––––––––––––––––––––––––––
DR12 -6.05 dB -20.03 dB 3:16 01-Exactly Like You
DR9 -8.28 dB -20.47 dB 3:22 02-La Vie En Rose
DR12 -6.05 dB -21.49 dB 4:42 03-I'm Confessin' (That I Love You)
DR10 -6.04 dB -18.76 dB 2:57 04-You Can Depend On Me
DR13 -6.04 dB -22.27 dB 3:19 05-What A Wonderful World
DR11 -6.04 dB -19.77 dB 3:04 06-That's My Home
DR12 -6.05 dB -20.89 dB 3:23 07-A Kiss To Build A Dream On
DR12 -6.04 dB -20.45 dB 3:46 08-I Wonder
DR10 -6.04 dB -18.28 dB 3:51 09-Dream A Little Dream Of Me
DR11 -6.04 dB -20.14 dB 3:12 10-You Can't Lose A Broken Heart
DR13 -6.99 dB -24.07 dB 4:36 11-That Lucky Old Sun (Just Rolls Around Heaven All Day)
DR11 -6.03 dB -20.17 dB 3:51 12-If We Never Meet Again
––––––––––––––––––––––––––––––––––––––––

Number of tracks: 12
Official DR value: DR11

Samplerate: 2822400 Hz / PCM Samplerate: 88200 Hz
Channels: 2
Bits per sample: 24
Bitrate: 5645 kbps
Codec: DSD64


Uncompressed SACD ISO size > 4,02 GB
>
SACD ISO 1
SACD ISO 2
SACD ISO 3
SACD ISO 4
SACD ISO 5
FLAC (Stereo)
>